[ Сегодня идет свободное скачивание без начисления Download ]


Статистика раздачи
Нет
 
   
 
Top  
 
 
Машины: разобрать и продать / National Geographic - Strippers: Cars for Cash
Год выпуска: 2012
Страна: UK
Жанр: Реалити шоу
Продолжительность: 00:45:00
Перевод: Студийный (одноголосый закадровый)
Описание: Можно ли заработать деньги на машине, которая сдана в лом? Об этом мы скоро узнаем в этом удивительном соревновании по разборке машин. Две команды опытных авторазборщиков прочешут страну в поисках старых машин, с которых они поснимают все детали и продадут тому, кто предложит больше. Деньги потекут рекой. И полетят фонтаны искр. Пусть начнется битва в новом реалити-шоу от канала National Geographic Cannel «Машины: Разобрать и продать»!
Сэмпл: http://multi-up.com/907718
качество: SATRip
формат: AVI
Видео: Xvid 704x400 25fps ~1500 Kbps (в серии Британская классика разрешение видео 720х400)
Аудио: MP3 48000Hz stereo 128kbps

Список выпусков/серий

Бандитские авто
Команды пытаются заработать на разбитых супермощных машинах, часто используемых бандитами для бегства от полиции, - "Jaguar XJR" и "Audi A8.
Форсаж
На этот раз две соревнующиеся команды должны разобрать японские спортивные автомобили, чтобы продать их запчасти с наибольшей выгодой.
Разборка "супермини"
Команды соревнуются в том, чтобы получить больше прибыли на продаже частей от автомобилей "супермини", включая "Мини Сити" и "Мини Купер".
Списанные внедорожники
Команды ищут хиты в классе внедорожников, чтобы разобрать и продать на детали. Принесет ли больше денег "Лэнд Ровер 90" или "Мицубиси-Паджеро"?
Спортивные легенды
Ферари, "Порше", "Ламборгини" и "Альфа Ромео" имеют легендарный статус. Но смогут ли команды найти спортивные легенды в пределах 1000 фунтов?
Маленькие да удаленькие
Джордж и Шелдон разбирают машину фирмы "Эм-Джи", а Бен и Фрэнки - "Мазду МХ-5", стремясь заработать на старых компактных спортивных автомобилях.
Воины на выходные
Команды имеют дело с разными навороченными автодомами, "жуками" и багги, стараясь выручить как можно больше на их разборке и продаже запчастей.
Горячие хэтчбеки
Легендарные хэтчбеки 1980-х пользуются огромным спросом до сих пор - значит, наши авторазборщики могут хорошо заработать на рынке запчастей.
Американская классика
На этой неделе команды должны отыскать недорогой классический американский автомобиль, разобрать его на детали и выгодно продать их.
Британская классика
Две команды должны найти и разобрать престижную классическую английскую машину, чтобы получить максимальную прибыль от продажи ее деталей.

MediaInfo

General
Complete name : C:\Users\Videos\Машины разобрать и продать (1 сезон)\1_01 Бандитские авто.avi
Format : AVI
Format/Info : Audio Video Interleave
File size : 527 MiB
Duration : 45mn 0s
Overall bit rate : 1 637 Kbps
Writing application : VirtualDubMod 1.5.10.3 | www.virtualdub-fr.org || (build 2550/release)
Writing library : VirtualDubMod build 2550/release
Video
ID : 0
Format : MPEG-4 Visual
Format profile : Advanced Simple@L5
Format settings, BVOP : Yes
Format settings, QPel : No
Format settings, GMC : No warppoints
Format settings, Matrix : Default (MPEG)
Codec ID : XVID
Codec ID/Hint : XviD
Duration : 45mn 0s
Bit rate : 1 500 Kbps
Width : 704 pixels
Height : 400 pixels
Display aspect ratio : 16:9
Frame rate : 25.000 fps
Color space : YUV
Chroma subsampling : 4:2:0
Bit depth : 8 bits
Scan type : Progressive
Compression mode : Lossy
Bits/(Pixel*Frame) : 0.213
Stream size : 483 MiB (92%)
Writing library : XviD 1.2.1 (UTC 2008-12-04)
Audio
ID : 1
Format : MPEG Audio
Format version : Version 1
Format profile : Layer 3
Codec ID : 55
Codec ID/Hint : MP3
Duration : 45mn 0s
Bit rate mode : Constant
Bit rate : 128 Kbps
Channel count : 2 channels
Sampling rate : 48.0 KHz
Compression mode : Lossy
Stream size : 41.2 MiB (8%)
Alignment : Aligned on interleaves
Interleave, duration : 40 ms (1.00 video frame)
Interleave, preload duration : 504 ms
Writing library : LAME3.99r
Encoding settings : -m s -V 4 -q 2 -lowpass 17 -b 128

Скриншоты - Бандитские авто

Скриншоты - Форсаж

Скриншоты - Американская классика

Скриншоты - Разборка "супермини"

Скриншоты - Горячие хэтчбеки

Скриншоты - Спортивные легенды

Скриншоты - Списанные внедорожники

Скриншоты - Маленькие да удаленькие

Скриншоты - Воины на выходные

Скриншоты - Британская классика

[Цитировать]



Показать сообщения:    

Текущее время: 09-Дек 10:44

Часовой пояс: UTC + 3


Вы не можете начинать темы
Вы не можете отвечать на сообщения
Вы не можете редактировать свои сообщения
Вы не можете удалять свои сообщения
Вы не можете голосовать в опросах
Вы не можете прикреплять файлы к сообщениям
Вы не можете скачивать файлы

!ВНИМАНИЕ!
Сайт не предоставляет электронные версии произведений, а занимается лишь коллекционированием и каталогизацией ссылок, присылаемых и публикуемых на форуме нашими читателями. Если вы являетесь правообладателем какого-либо представленного материала и не желаете, чтобы ссылка на него находилась в нашем каталоге, свяжитесь с нами, и мы незамедлительно удалим ее. Файлы для обмена на трекере предоставлены пользователями сайта, и администрация не несет ответственности за их содержание. Просьба не заливать файлы, защищенные авторскими правами, а также файлы нелегального содержания!