[ Сегодня идет свободное скачивание без начисления Download ]


Статистика раздачи
Нет
 
   
 
Top  
 
 
Машины: разобрать и продать / National Geographic - Strippers: Cars for Cash
Год выпуска: 2013
Страна: UK
Жанр: Реалити шоу
Продолжительность: ~10 x 00:45:00
Перевод: Студийный (одноголосый закадровый)
Описание: Обычно тот или иной автомобиль пользуется спросом благодаря своей надежности, скорости и т.п., но для авторазборщиков все они лишь конструкция из отдельных деталей, которую нужно разобрать на запчасти и продать за приличные деньги. В этом новом реалити-сериале соревнуются две команды авторазборщиков: их задача первыми найти как можно более дешевые автомобили, разобрать их и постараться продать все части так, чтобы получить максимальную прибыль. Смогут ли эти «автовандалы» заработать на автохламе?
Сэмпл: http://multi-up.com/902043
качество: IPTVRip
формат: AVI
Видео: Xvid 720x400 25fps 1 500 Kbps
Аудио: MP3 48000Hz stereo 128kbps

Список выпусков/серий

1 серия Суровые сделки.
Две команды получают по 250 фунтов на покупку машины и хорошо зарабатывают на продаже и покупке запчастей.
2 серия Списанные рабочие лошадки.
Команды должны найти "списанную рабочую лошадку", машину, которая честно служила своим владельцам, но теперь им не нужна.
3 серия Свингующие шестидесятые.
На этой неделе команды отправляются на поиск культовых машин 60-х годов, и пытаются победить в конкурсе по перепродаже запчастей.
4 серия Моя первая машина.
Командам предлагается найти такие же машины, которые когда-то были у них, и победить в конкурсе по перепродаже запчастей.
5 серия Борьба с плесенью.
Командам придеться получить максимальную прибыль от разборки авангардного автомобиля.
6 серия Самые дорогие авто
Команды должны купить и разобрать машину, стоившую не менее 50 тыс. фунтов стерлингов (в пересчете на сегодняшние деньги), когда она была новая.
7 серия Отвезите меня домой
Тема сегодняшней серии - наемные автомобили: классическое лондонское такси против стретч-лимузина.
8 серия Суперкары на детали
Бен и Фрэнки берутся за "Порше-911", а Джордж и Шелдон выбирают "Мазерати-3200GT". Смогут ли они получить прибыль при таких больших затратах?
9 серия Французский связной
В этой серии "Ситроен" сразится против "Ситроена": ржавый "DS" противостоит "Диану", преемнику легендарного 2CV.
10 серия Крутые тачки
Команды должны заработать на разборке серьёзно модифицированных обычных автомобилей.

MediaInfo

General
Complete name : C:\Users\Desktop\2 x 01 Суровые сделки.avi
Format : AVI
Format/Info : Audio Video Interleave
File size : 527 MiB
Duration : 44mn 59s
Overall bit rate : 1 638 Kbps
Writing application : VirtualDubMod 1.5.10.3 | www.virtualdub-fr.org || (build 2550/release)
Writing library : VirtualDubMod build 2550/release
Video
ID : 0
Format : MPEG-4 Visual
Format profile : Advanced [email protected]
Format settings, BVOP : 2
Format settings, QPel : No
Format settings, GMC : No warppoints
Format settings, Matrix : Default (MPEG)
Codec ID : XVID
Codec ID/Hint : XviD
Duration : 44mn 59s
Bit rate : 1 500 Kbps
Width : 720 pixels
Height : 400 pixels
Display aspect ratio : 16:9
Frame rate : 25.000 fps
Color space : YUV
Chroma subsampling : 4:2:0
Bit depth : 8 bits
Scan type : Progressive
Compression mode : Lossy
Bits/(Pixel*Frame) : 0.208
Stream size : 483 MiB (92%)
Writing library : XviD 1.2.1 (UTC 2008-12-04)
Audio
ID : 1
Format : MPEG Audio
Format version : Version 1
Format profile : Layer 3
Codec ID : 55
Codec ID/Hint : MP3
Duration : 44mn 59s
Bit rate mode : Constant
Bit rate : 128 Kbps
Channel count : 2 channels
Sampling rate : 48.0 KHz
Compression mode : Lossy
Stream size : 41.2 MiB (8%)
Alignment : Aligned on interleaves
Interleave, duration : 40 ms (1.00 video frame)
Interleave, preload duration : 504 ms
Writing library : LAME3.99r
Encoding settings : -m s -V 4 -q 0 -lowpass 17 -b 128

Скриншоты - Суровые сделки

Скриншоты - Списанные рабочие лошадки

Скриншоты - Свингующие шестидесятые

Скриншоты - Моя первая машина

Скриншоты - Борьба с плесенью

Скриншоты - Самые дорогие авто

Скриншоты - Отвезите меня домой

Скриншоты - Суперкары на детали

Скриншоты - Французский связной

Скриншоты - Крутые тачки

[Цитировать]



Показать сообщения:    

Текущее время: 06-Дек 03:57

Часовой пояс: UTC + 3


Вы не можете начинать темы
Вы не можете отвечать на сообщения
Вы не можете редактировать свои сообщения
Вы не можете удалять свои сообщения
Вы не можете голосовать в опросах
Вы не можете прикреплять файлы к сообщениям
Вы не можете скачивать файлы

!ВНИМАНИЕ!
Сайт не предоставляет электронные версии произведений, а занимается лишь коллекционированием и каталогизацией ссылок, присылаемых и публикуемых на форуме нашими читателями. Если вы являетесь правообладателем какого-либо представленного материала и не желаете, чтобы ссылка на него находилась в нашем каталоге, свяжитесь с нами, и мы незамедлительно удалим ее. Файлы для обмена на трекере предоставлены пользователями сайта, и администрация не несет ответственности за их содержание. Просьба не заливать файлы, защищенные авторскими правами, а также файлы нелегального содержания!