[ Сегодня идет свободное скачивание без начисления Download ]


Статистика раздачи
Нет
 
   
 
Top  
 
 
Мегазаводы: Wargaming / Ultimate Factories: Wargaming- Год выпуска: 2013
Страна: США
Жанр: документальный
Продолжительность: 00:43:37
Перевод: Авторский (одноголосый закадровый) ARC TV
Русские субтитры: нет
Описание: Имея более 40 млн. фанатов по всему миру, компания "Wargaming" прилагает все усилия, чтобы как можно скорее выпустить новую игру - "Мир танков".
качество: DVB 576i (нтв+) Сэмпл: http://multi-up.com/924528
формат: TS
Видео: TS | MPEG2 | 704x576@1024x576 (16:9) | ~3 629 Kbps | 25.000 fps | ~0.252 bits/pix
Аудио:
  • MP2 | 48 KHz | 2.0 (2ch) | 192 kbps [RUS]
  • MP2 | 48 KHz | 2.0 (2ch) | 192 kbps [ENG]

MediaInfo

Общее
Идентификатор : 1 (0x1)
Полное имя : E:\VIDEOS\Ultimate.Factories.Wargaming.2013.576i.DVB.MPEG2-CasStudio.ts
Формат : MPEG-TS
Размер файла : 973 Мбайт
Продолжительность : 43 м.
Режим общего битрейта : Переменный
Общий поток : 3091 Кбит/сек
Максимальный общий битрейт : 35,5 Мбит/сек
Видео
Идентификатор : 4113 (0x1011)
Идентификатор меню : 1 (0x1)
Формат : MPEG Video
Версия формата : Version 2
Профиль формата : Main@Main
Параметр BVOP формата : Нет
Параметр матрицы формата : Выборочная
Параметр GOP формата : Variable
Идентификатор кодека : 2
Продолжительность : 43 м.
Вид битрейта : Переменный
Битрейт : 2550 Кбит/сек
Максимальный битрейт : 5000 Кбит/сек
Ширина : 704 пикселя
Высота : 576 пикселей
Соотношение сторон : 16:9
Частота кадров : 25,000 кадров/сек
Стандарт вещания : PAL
Цветовое пространство : YUV
Субдискретизация насыщенности : 4:2:0
Битовая глубина : 8 бит
Тип развёртки : Чересстрочная
Порядок развёртки : Верхнее поле первое
Метод сжатия : С потерями
Бит/(Пиксели*Кадры) : 0.252
Временной код первого кадра : 00:00:00:00
Оригинал временного кода : Group of pictures header
Размер потока : 802 Мбайт (83%)
Аудио #1
Идентификатор : 4352 (0x1100)
Идентификатор меню : 1 (0x1)
Формат : MPEG Audio
Версия формата : Version 1
Профиль формата : Layer 2
Идентификатор кодека : 4
Продолжительность : 43 м.
Вид битрейта : Постоянный
Битрейт : 192 Кбит/сек
Каналы : 2 канала
Частота : 48,0 КГц
Метод сжатия : С потерями
Размер потока : 60,4 Мбайт (6%)
Язык : Russian
Аудио #2
Идентификатор : 4353 (0x1101)
Идентификатор меню : 1 (0x1)
Формат : MPEG Audio
Версия формата : Version 1
Профиль формата : Layer 2
Идентификатор кодека : 4
Продолжительность : 43 м.
Вид битрейта : Постоянный
Битрейт : 192 Кбит/сек
Каналы : 2 канала
Частота : 48,0 КГц
Метод сжатия : С потерями
Размер потока : 60,4 Мбайт (6%)
Язык : English

Скриншоты

[Цитировать]



Показать сообщения:    

Текущее время: 02-Дек 22:54

Часовой пояс: UTC + 3


Вы не можете начинать темы
Вы не можете отвечать на сообщения
Вы не можете редактировать свои сообщения
Вы не можете удалять свои сообщения
Вы не можете голосовать в опросах
Вы не можете прикреплять файлы к сообщениям
Вы не можете скачивать файлы

!ВНИМАНИЕ!
Сайт не предоставляет электронные версии произведений, а занимается лишь коллекционированием и каталогизацией ссылок, присылаемых и публикуемых на форуме нашими читателями. Если вы являетесь правообладателем какого-либо представленного материала и не желаете, чтобы ссылка на него находилась в нашем каталоге, свяжитесь с нами, и мы незамедлительно удалим ее. Файлы для обмена на трекере предоставлены пользователями сайта, и администрация не несет ответственности за их содержание. Просьба не заливать файлы, защищенные авторскими правами, а также файлы нелегального содержания!