[ Сегодня идет свободное скачивание без начисления Download ]


Статистика раздачи
Нет
 
   
 
Top  
 
 
Винни Джонс: Реально о России / Vinnie Jones: Russia's Toughest
Год выпуска: 2013
Страна: UK
Жанр: Документальный фильм
Продолжительность: 00:44:00
Перевод: Студийный (одноголосый закадровый)
Режиссер: National Geographic
Описание: Этот документальный фильм из шести серий рассказывает о Винни Джонсе, который бросает вызов России. Задача Винни - выяснить, почему считается, что здесь так тяжело работать и жить, и соответствует ли это действительности. Винни попробует жить в России, примерив на себя профессии, которые могут показаться очень тяжелыми.
качество: IPTVRip
формат: AVI
Видео: Xvid 704x400 25fps 1500 Kbps
Аудио: MP3 48000Hz 128kbps
АНОНС

Список выпусков/серий

Железнодорожники
Винни узнает о том, как работается российским железнодорожникам, а затем отправляется в Заполярье, где посещает ежегодные гонки на оленях.
Отряд по борьбе с браконьерами
Винни Джонс отправляется на Камчатку, чтобы пожить и поработать с инспекторами, охраняющими большую популяцию бурых медведей от браконьеров.
Телохранители
Винни Джонс присоединяется к самым крутым телохранителям в России и помогает охранять московских звезд от бандитов, похищающих людей.
Стройотряд
Винни присоединяется к бригаде строителей моста через бухту Золотой Рог и работает с ними на завершающем этапе.
Охотники
На Дальнем Востоке России у Винни Джонса большой улов, он работает на рыбозаводе, а также отправляется на охоту с оленеводами.
Ковбои
Винни Джонс присоединяется к американским ковбоям, которые находятся далеко от исторической родины, в Брянске. В России любят говядину, поэтому герои этого эпизода решили открыть мясную ферму. Перед Винни стоит ряд непростых задач, и он работает плечом к плечу как с американцами, так и с русскими, пытаясь заслужить их признание.

MediaInfo

General
Complete name : C:\Users\Videos\Винни Джонс - Реально о России\Железнодорожники.avi
Format : AVI
Format/Info : Audio Video Interleave
File size : 515 MiB
Duration : 43mn 59s
Overall bit rate : 1 637 Kbps
Writing application : VirtualDubMod 1.5.10.3 | www.virtualdub-fr.org || (build 2550/release)
Writing library : VirtualDubMod build 2550/release
Video
ID : 0
Format : MPEG-4 Visual
Format profile : Advanced Simple@L5
Format settings, BVOP : Yes
Format settings, QPel : No
Format settings, GMC : No warppoints
Format settings, Matrix : Default (MPEG)
Codec ID : XVID
Codec ID/Hint : XviD
Duration : 43mn 59s
Bit rate : 1 500 Kbps
Width : 704 pixels
Height : 400 pixels
Display aspect ratio : 16:9
Frame rate : 25.000 fps
Color space : YUV
Chroma subsampling : 4:2:0
Bit depth : 8 bits
Scan type : Progressive
Compression mode : Lossy
Bits/(Pixel*Frame) : 0.213
Stream size : 472 MiB (92%)
Writing library : XviD 1.2.1 (UTC 2008-12-04)
Audio
ID : 1
Format : MPEG Audio
Format version : Version 1
Format profile : Layer 3
Codec ID : 55
Codec ID/Hint : MP3
Duration : 43mn 59s
Bit rate mode : Constant
Bit rate : 128 Kbps
Channel count : 2 channels
Sampling rate : 48.0 KHz
Compression mode : Lossy
Stream size : 40.3 MiB (8%)
Alignment : Aligned on interleaves
Interleave, duration : 40 ms (1.00 video frame)
Interleave, preload duration : 504 ms
Writing library : LAME3.99r
Encoding settings : -m s -V 4 -q 0 -lowpass 17 -b 128

Скриншоты - Железнодорожники

Скриншоты - Отряд по борьбе с браконьерами

Скриншоты - Телохранители

Скриншоты - Стройотряд

Скриншоты - Охотники

Скриншоты - Ковбои

[Цитировать]



Показать сообщения:    

Текущее время: 11-Дек 07:16

Часовой пояс: UTC + 3


Вы не можете начинать темы
Вы не можете отвечать на сообщения
Вы не можете редактировать свои сообщения
Вы не можете удалять свои сообщения
Вы не можете голосовать в опросах
Вы не можете прикреплять файлы к сообщениям
Вы не можете скачивать файлы

!ВНИМАНИЕ!
Сайт не предоставляет электронные версии произведений, а занимается лишь коллекционированием и каталогизацией ссылок, присылаемых и публикуемых на форуме нашими читателями. Если вы являетесь правообладателем какого-либо представленного материала и не желаете, чтобы ссылка на него находилась в нашем каталоге, свяжитесь с нами, и мы незамедлительно удалим ее. Файлы для обмена на трекере предоставлены пользователями сайта, и администрация не несет ответственности за их содержание. Просьба не заливать файлы, защищенные авторскими правами, а также файлы нелегального содержания!