[ Сегодня идет свободное скачивание без начисления Download ]


Статистика раздачи
Нет
 
   
 
Top  
 
 
-Игра Эндера / Ender's Game- Год выпуска: 2013
Производство: США, Chartoff Productions, Digital Domain Media Group, Kurtzman Orci Paper Products, Summit Entertainment
Жанр: Фантастика, Боевик, Приключения
Перевод: Дублированный [Звук с TS]
Субтитры: Отсутствуют
Дата мировой премьеры: 24 октября 2013
Дата российской премьеры: 31 октября 2013, «West»
Режиссер: Гэвин Худ
Продюсер: Орсон Скотт Кард, Роберт Чартофф, Линн Хенди
Актеры: Харрисон Форд, Бен Кингсли, Эйса Баттерфилд, Эбигейл Бреслин, Хейли Стайнфелд, Виола Дэвис, Мойзес Ариас, Нонсо Анози, Арамис Найт, Брэндон Су Ху
Описание фильма:Действие происходит в 2135 году. Человечество пережило два вторжения инопланетной расы «жукеров», лишь чудом уцелев, и готовится к очередному вторжению. Для поиска пилотов и военачальников, способных принести Земле победу, создаётся военная школа, в которую отправляют самых талантливых детей. Среди этих детей Эндрю (Эндер) Виггин, будущий полководец Международного флота Земли и единственная надежда человечества на спасение.
Продолжительность: 01:53:48
Качество видео: WEB-DL [H.264/720p-LQ]
Видеокодек: MPEG-4 AVC/H.264
Битрейт видео: ~3959 Kbps
Размер кадра: 1280x530
Аудио #1: Русский: AC-3, 48.0 KHz, 2 ch, 320 Kbps, CBR
Аудио #2: Английский: AC-3, 48.0 KHz, 6 ch, 384 Kbps, CBR
Сэмпл: Скачать

MediaInfo

Общее
Уникальный идентификатор : 173141705279108260655253445711781404726 (0x8241E125BA508E7A826369349BEFA036)
Полное имя : E:\Фильмы\Igra.Endera.2013.Dt.WEB-DLRip.720p.mkv
Формат : Matroska
Версия формата : Version 2
Размер файла : 3,78 Гбайт
Продолжительность : 1 ч. 53 м.
Общий поток : 4758 Кбит/сек
Дата кодирования : UTC 2014-01-28 09:54:14
Программа кодирования : mkvmerge v5.8.0 ('No Sleep / Pillow') built on Sep 2 2012 15:37:04
Библиотека кодирования : libebml v1.2.3 + libmatroska v1.3.0
Видео
Идентификатор : 1
Формат : AVC
Формат/Информация : Advanced Video Codec
Профиль формата : Main@L3.1
Параметр CABAC формата : Нет
Параметр ReFrames формата : 2 кадра
Идентификатор кодека : V_MPEG4/ISO/AVC
Продолжительность : 1 ч. 53 м.
Битрейт : 3959 Кбит/сек
Ширина : 1280 пикселей
Высота : 530 пикселей
Соотношение сторон : 2,40:1
Режим частоты кадров : Постоянный
Частота кадров : 23,976 кадра/сек
Цветовое пространство : YUV
Субдискретизация насыщенности : 4:2:0
Битовая глубина : 8 бит
Тип развёртки : Прогрессивная
Бит/(Пиксели*Кадры) : 0.243
Размер потока : 3,15 Гбайт (83%)
Язык : English
Default : Да
Forced : Нет
Основные цвета : BT.709
Характеристики трансфера : BT.709
Коэффициенты матрицы : BT.709
Аудио #1
Идентификатор : 2
Формат : AC-3
Формат/Информация : Audio Coding 3
Расширение режима : CM (complete main)
Параметр Endianness формата : Big
Идентификатор кодека : A_AC3
Продолжительность : 1 ч. 53 м.
Вид битрейта : Постоянный
Битрейт : 320 Кбит/сек
Каналы : 2 канала
Расположение каналов : Front: L R
Частота : 48,0 КГц
Битовая глубина : 16 бит
Метод сжатия : С потерями
Размер потока : 260 Мбайт (7%)
Язык : Russian
Default : Да
Forced : Нет
Аудио #2
Идентификатор : 3
Формат : AC-3
Формат/Информация : Audio Coding 3
Расширение режима : CM (complete main)
Параметр Endianness формата : Big
Идентификатор кодека : A_AC3
Продолжительность : 1 ч. 53 м.
Вид битрейта : Постоянный
Битрейт : 384 Кбит/сек
Каналы : 6 каналов
Расположение каналов : Front: L C R, Side: L R, LFE
Частота : 48,0 КГц
Битовая глубина : 16 бит
Метод сжатия : С потерями
Размер потока : 313 Мбайт (8%)
Язык : English
Default : Нет
Forced : Нет
Меню
00:00:00.000 : en:Chapter 1
00:06:10.000 : en:Chapter 2
00:14:18.000 : en:Chapter 3
00:19:06.000 : en:Chapter 4
00:28:04.000 : en:Chapter 5
00:33:22.000 : en:Chapter 6
00:39:34.000 : en:Chapter 7
00:45:43.000 : en:Chapter 8
00:53:37.000 : en:Chapter 9
01:02:15.000 : en:Chapter 10
01:09:21.000 : en:Chapter 11
01:15:16.000 : en:Chapter 12
01:23:38.000 : en:Chapter 13
01:30:54.000 : en:Chapter 14
01:35:39.000 : en:Chapter 15
01:41:12.000 : en:Chapter 16

[Цитировать]



Показать сообщения:    

Текущее время: 11-Дек 03:18

Часовой пояс: UTC + 3


Вы не можете начинать темы
Вы не можете отвечать на сообщения
Вы не можете редактировать свои сообщения
Вы не можете удалять свои сообщения
Вы не можете голосовать в опросах
Вы не можете прикреплять файлы к сообщениям
Вы не можете скачивать файлы

!ВНИМАНИЕ!
Сайт не предоставляет электронные версии произведений, а занимается лишь коллекционированием и каталогизацией ссылок, присылаемых и публикуемых на форуме нашими читателями. Если вы являетесь правообладателем какого-либо представленного материала и не желаете, чтобы ссылка на него находилась в нашем каталоге, свяжитесь с нами, и мы незамедлительно удалим ее. Файлы для обмена на трекере предоставлены пользователями сайта, и администрация не несет ответственности за их содержание. Просьба не заливать файлы, защищенные авторскими правами, а также файлы нелегального содержания!