[ Сегодня идет свободное скачивание без начисления Download ]


Статистика раздачи
Нет
 
   
 
Top  
 
 
Невероятная жизнь Уолтера Митти / The Secret Life of Walter Mitty- Страна: США
Студия: 20th Century Fox Film Corporation, Red House Entertainment, Truenorth Productions
Жанр: Фэнтези, драма, комедия, приключения
Год выпуска: 2013
Продолжительность: 01:54:32
Перевод: Профессиональный (дублированный) Звук с TS
Cубтитры: нет
Оригинальная аудиодорожка: английский-Режиссер: Бен Стиллер / Ben Stiller-В ролях: Кристен Уиг, Бен Стиллер, Шон Пенн, Адам Скотт, Кэтрин Хан, Ширли МакЛейн, Пэттон Освальт, Джои Слотник, Тосико Онидзава, Адриан Мартинез-Описание: Кто сказал, что в сердце маленького человека не могут жить великие мечты? Даже скромному и незаметному служащему небольшого магазинчика хочется иногда совершить пусть безумные, но геройские поступки, поверить в свою силу и мужество. Почему всех спасать должны исключительно супермены?- -Качество видео: DVDScreener
Формат видео: AVI
Видео: 720x304 (2.37:1), 23.976 fps, XviD build 50, 1912 kbps avg, 0.36 bit/pixel
Аудио: Русский, 44.100 kHz, MPEG Layer 3, 2 ch, 320.00 kbps avg
Аудио 2: Английский, 44.100 kHz, MPEG Layer 3, 2 ch, 320.00 kbps avg-

MediaInfo

General
Complete name : C:\Desktop\Rutracker\Jizn.Waltera.Mitty.2013.Dt.DVDScr.2100MB.avi
Format : AVI
Format/Info : Audio Video Interleave
File size : 2.05 GiB
Duration : 1h 54mn
Overall bit rate : 2 567 Kbps
Writing application : VirtualDubMod 1.5.10.2 (build 2540/release)
Writing library : VirtualDubMod build 2540/release
Video
ID : 0
Format : MPEG-4 Visual
Format profile : Advanced [email protected]
Format settings, BVOP : 2
Format settings, QPel : No
Format settings, GMC : No warppoints
Format settings, Matrix : Custom
Codec ID : XVID
Codec ID/Hint : XviD
Duration : 1h 54mn
Bit rate : 1 913 Kbps
Width : 720 pixels
Height : 304 pixels
Display aspect ratio : 2.35:1
Frame rate : 23.976 fps
Color space : YUV
Chroma subsampling : 4:2:0
Bit depth : 8 bits
Scan type : Progressive
Compression mode : Lossy
Bits/(Pixel*Frame) : 0.364
Stream size : 1.53 GiB (75%)
Writing library : XviD 1.2.1 (UTC 2008-12-04)
Audio #1
ID : 1
Format : MPEG Audio
Format version : Version 1
Format profile : Layer 3
Codec ID : 55
Codec ID/Hint : MP3
Duration : 1h 54mn
Bit rate mode : Constant
Bit rate : 320 Kbps
Channel(s) : 2 channels
Sampling rate : 44.1 KHz
Compression mode : Lossy
Stream size : 262 MiB (12%)
Alignment : Split accross interleaves
Interleave, duration : 42 ms (1.00 video frame)
Interleave, preload duration : 500 ms
Audio #2
ID : 2
Format : MPEG Audio
Format version : Version 1
Format profile : Layer 3
Codec ID : 55
Codec ID/Hint : MP3
Duration : 1h 54mn
Bit rate mode : Constant
Bit rate : 320 Kbps
Channel(s) : 2 channels
Sampling rate : 44.1 KHz
Compression mode : Lossy
Stream size : 262 MiB (12%)
Alignment : Split accross interleaves
Interleave, duration : 42 ms (1.00 video frame)
Interleave, preload duration : 500 ms

Скриншот c названием фильма

Скриншоты

-

[Цитировать]



Показать сообщения:    

Текущее время: 04-Дек 09:15

Часовой пояс: UTC + 3


Вы не можете начинать темы
Вы не можете отвечать на сообщения
Вы не можете редактировать свои сообщения
Вы не можете удалять свои сообщения
Вы не можете голосовать в опросах
Вы не можете прикреплять файлы к сообщениям
Вы не можете скачивать файлы

!ВНИМАНИЕ!
Сайт не предоставляет электронные версии произведений, а занимается лишь коллекционированием и каталогизацией ссылок, присылаемых и публикуемых на форуме нашими читателями. Если вы являетесь правообладателем какого-либо представленного материала и не желаете, чтобы ссылка на него находилась в нашем каталоге, свяжитесь с нами, и мы незамедлительно удалим ее. Файлы для обмена на трекере предоставлены пользователями сайта, и администрация не несет ответственности за их содержание. Просьба не заливать файлы, защищенные авторскими правами, а также файлы нелегального содержания!