[ Сегодня идет свободное скачивание без начисления Download ]


Статистика раздачи
Нет
 
   
 
Top  
 
 
-Короли танцпола / Battle of the Year - Год выпуска: 2013
Производство: США
Жанр: Музыкальный
Перевод: Дублированный [iTunes]
Субтитры: Вшитые отключаемые + отдельным файлом
Язык субтитров: Русский, английский
Дата мировой премьеры: 19 сентября 2013
Дата российской премьеры: 12 декабря 2013, «WDSSPR»
Дата украинской премьеры: 12 декабря 2013, «B&H Film Distribution Company»
Дата выхода DVD релиза: 25 марта 2014, «Columbia/Sony»
Режиссер: Бенсон Ли
Продюсер: Бо Флинн, Эми Ло, Трип Винсон
Актеры: Джош Холлоуэй, Лас Алонсо, Джош Пек, Кейти Лотц, Крис Браун, Иван «Флипз» Велез, Джон «Ду Нок» Крус, Джесси «Каспер» Браун, Дэвид Шрейбман, Саванди Уилсон
Описание фильма:Фильм расскажет про подготовку би-боев, которые в конце года сразятся на финальном соревновании. Главные герои после поражения имеют не так много времени, чтобы подготовиться к встрече с лучшими би-боями мира, которые доминируют на играх уже 10 лет…
Продолжительность: 01:49:40
Качество видео: BDRip [1080p]
Видеокодек: MPEG-4 AVC/H.264
Битрейт видео: ~10400 Kbps
Размер кадра: 1920х1080
Аудио #1: Русский: AC-3, 48.0 KHz, 2 ch, 224 Kbps, CBR
Aудио #2: Aнглийский: AC-3, 48.0 KHz, 6 ch, 640 Kbps, CBR

MediaInfo

Общее
Уникальный идентификатор : 231871193476349306502484536484550525413 (0xAE70C479497036C09A4DDB7008B1C1E5)
Полное имя : D:\Фильмы 3D\Koroli.tantspola.2013.D.BDRip.1080p.3D\Koroli.tantspola.2013.D.BDRip.1080p.3D.mkv
Формат : Matroska
Версия формата : Version 2
Размер файла : 8,83 Гбайт
Продолжительность : 1 ч. 49 м.
Общий поток : 11,5 Мбит/сек
Название фильма : Короли танцпола / Battle of the Year (2013) 3D
Дата кодирования : UTC 2014-01-27 16:38:54
Программа кодирования : mkvmerge v5.8.0 ('No Sleep / Pillow') built on Sep 2 2012 15:37:04
Библиотека кодирования : libebml v1.2.3 + libmatroska v1.3.0
Видео
Идентификатор : 1
Формат : AVC
Формат/Информация : Advanced Video Codec
Профиль формата : [email protected]
Параметр CABAC формата : Да
Параметр ReFrames формата : 4 кадра
Идентификатор кодека : V_MPEG4/ISO/AVC
Продолжительность : 1 ч. 49 м.
Битрейт : 10,4 Мбит/сек
Ширина : 1920 пикселей
Высота : 1080 пикселей
Соотношение сторон : 16:9
Режим частоты кадров : Постоянный
Частота кадров : 23,976 кадра/сек
Цветовое пространство : YUV
Субдискретизация насыщенности : 4:2:0
Битовая глубина : 8 бит
Тип развёртки : Прогрессивная
Бит/(Пиксели*Кадры) : 0.210
Размер потока : 7,99 Гбайт (91%)
Заголовок : BDRip by Ash61
Библиотека кодирования : x264 core 129 r2245 bc13772
Настройки программы : cabac=1 / ref=4 / deblock=1:-3:-3 / analyse=0x3:0x113 / me=umh / subme=10 / psy=1 / psy_rd=1.00:0.15 / mixed_ref=1 / me_range=32 / chroma_me=1 / trellis=2 / 8x8dct=1 / cqm=0 / deadzone=21,11 / fast_pskip=1 / chroma_qp_offset=-3 / threads=12 / lookahead_threads=2 / sliced_threads=0 / nr=0 / decimate=1 / interlaced=0 / bluray_compat=0 / constrained_intra=0 / bframes=8 / b_pyramid=2 / b_adapt=2 / b_bias=0 / direct=3 / weightb=1 / open_gop=0 / weightp=2 / keyint=250 / keyint_min=23 / scenecut=40 / intra_refresh=0 / rc_lookahead=60 / rc=crf / mbtree=1 / crf=17.0 / qcomp=0.70 / qpmin=0 / qpmax=69 / qpstep=4 / vbv_maxrate=40000 / vbv_bufsize=30000 / crf_max=0.0 / nal_hrd=none / frame-packing=4 / ip_ratio=1.40 / aq=1:0.70
Язык : English
Default : Да
Forced : Нет
Аудио #1
Идентификатор : 2
Формат : AC-3
Формат/Информация : Audio Coding 3
Расширение режима : CM (complete main)
Параметр Endianness формата : Big
Идентификатор кодека : A_AC3
Продолжительность : 1 ч. 49 м.
Вид битрейта : Постоянный
Битрейт : 224 Кбит/сек
Каналы : 2 канала
Расположение каналов : Front: L R
Частота : 48,0 КГц
Битовая глубина : 16 бит
Метод сжатия : С потерями
Размер потока : 176 Мбайт (2%)
Заголовок : Дубляж - iTunes
Язык : Russian
Default : Да
Forced : Нет
Аудио #2
Идентификатор : 3
Формат : AC-3
Формат/Информация : Audio Coding 3
Расширение режима : CM (complete main)
Параметр Endianness формата : Big
Идентификатор кодека : A_AC3
Продолжительность : 1 ч. 49 м.
Вид битрейта : Постоянный
Битрейт : 640 Кбит/сек
Каналы : 6 каналов
Расположение каналов : Front: L C R, Side: L R, LFE
Частота : 48,0 КГц
Битовая глубина : 16 бит
Метод сжатия : С потерями
Размер потока : 502 Мбайт (6%)
Заголовок : Original - BD 3D
Язык : English
Default : Нет
Forced : Нет
Текст
Идентификатор : 4
Формат : UTF-8
Идентификатор кодека : S_TEXT/UTF8
Идентификатор кодека/Информация : UTF-8 Plain Text
Заголовок : Форсированные
Язык : Russian
Default : Да
Forced : Нет
Меню
00:00:00.000 : :1
00:06:29.055 : :2
00:14:23.988 : :3
00:21:34.376 : :4
00:27:32.150 : :5
00:35:15.905 : :6
00:40:19.834 : :7
00:47:32.016 : :8
00:55:42.089 : :9
01:00:01.056 : :10
01:04:58.686 : :11
01:12:07.073 : :12
01:21:09.448 : :13
01:29:05.757 : :14
01:33:02.368 : :15
01:39:49.442 : :16
Общее
Полное имя : D:\Фильмы 3D\Koroli.tantspola.2013.D.BDRip.1080p.3D\Koroli.tantspola.2013.D.BDRip.1080p.3D.srt
Формат : SubRip
Размер файла : 715 байт
Текст
Формат : SubRip
Метод сжатия : Без потерь
Общее
Полное имя : D:\Фильмы 3D\Koroli.tantspola.2013.D.BDRip.1080p.3D\Subs Eng Forced - Koroli.tantspola.2013.D.BDRip.1080p.3D.srt
Формат : SubRip
Размер файла : 685 байт
Текст
Формат : SubRip
Метод сжатия : Без потерь
Общее
Полное имя : D:\Фильмы 3D\Koroli.tantspola.2013.D.BDRip.1080p.3D\Subs Eng Full - Koroli.tantspola.2013.D.BDRip.1080p.3D.srt
Формат : SubRip
Размер файла : 123 Кбайт
Текст
Формат : SubRip
Метод сжатия : Без потерь
Общее
Полное имя : D:\Фильмы 3D\Koroli.tantspola.2013.D.BDRip.1080p.3D\Субтитры Русские Полные - Koroli.tantspola.2013.D.BDRip.1080p.3D.srt
Формат : SubRip
Размер файла : 126 Кбайт
Текст
Формат : SubRip
Метод сжатия : Без потерь

[Цитировать]



Показать сообщения:    

Текущее время: 06-Дек 21:01

Часовой пояс: UTC + 3


Вы не можете начинать темы
Вы не можете отвечать на сообщения
Вы не можете редактировать свои сообщения
Вы не можете удалять свои сообщения
Вы не можете голосовать в опросах
Вы не можете прикреплять файлы к сообщениям
Вы не можете скачивать файлы

!ВНИМАНИЕ!
Сайт не предоставляет электронные версии произведений, а занимается лишь коллекционированием и каталогизацией ссылок, присылаемых и публикуемых на форуме нашими читателями. Если вы являетесь правообладателем какого-либо представленного материала и не желаете, чтобы ссылка на него находилась в нашем каталоге, свяжитесь с нами, и мы незамедлительно удалим ее. Файлы для обмена на трекере предоставлены пользователями сайта, и администрация не несет ответственности за их содержание. Просьба не заливать файлы, защищенные авторскими правами, а также файлы нелегального содержания!