[ Сегодня идет свободное скачивание без начисления Download ]


Статистика раздачи
Нет
 
   
 
Top  
 
 
-Советник / The Counselor (2013) BDRip [720p]- Год выпуска: 2013
Производство: США, Великобритания, Chockstone Pictures, Scott Free Productions, Kanzaman S.A.
Жанр: Триллер, Криминал, Драма
Перевод: Дублированный [Лицензия]
Субтитры: Вшитые отключаемые
Язык субтитров: Русские, украинские, английские
Дата мировой премьеры: 25 октября 2013
Дата российской премьеры: 31 октября 2013, «Двадцатый Век Фокс СНГ»
Режиссер: Ридли Скотт
Продюсер: Майкл Костиган, Марк Хаффам, Кормак МакКарти
Актеры: Майкл Фассбендер, Хавьер Бардем, Брэд Питт, Натали Дормер, Пенелопа Крус, Кэмерон Диаз, Дин Норрис, Джон Легуизамо, Рози Перес, Горан Вишнич
Описание фильма:
Успешный адвокат, стоящий практически на вершине успеха и на пороге собственной свадьбы, из любопытства и, конечно, ради денег соглашается на предложение своего давнего знакомого, имеющего тесные связи с преступным миром, перевезти из Мексики в США партию кокаина стоимостью 20 млн. долл.

Продолжительность: 01:57:14
Качество видео: BDRip 720p
Видеокодек: MPEG-4 AVC/H.264
Битрейт видео: ~4805 Кбит/с
Размер кадра: 1280x534
Аудио#1: Russian: AC-3, 448 Kbps, 6 ch, 48.0 KHz
Аудио#2: English: DTS, 1510 Kbps, 6 ch, 48.0 KHz
Сэмпл: Скачать

MediaInfo

Unique ID                                : 214942297208853443784171815699217358938 (0xA1B4617257E652828E66A546ECCFA05A)
Complete name                            : E:\Фильмы\Sovetnik.2013.x264.BDRip.(720p).mkv
Format                                   : Matroska
Format version                           : Version 4 / Version 2
File size                                : 5.65 GiB
Duration                                 : 1h 57mn
Overall bit rate                         : 6 899 Kbps
Movie name                               : |??| ?? |Alexandr 80| ? | ? |??|
Encoded date                             : UTC 2014-01-30 03:22:23
Writing application                      : mkvmerge v6.5.0 ('Isn't she lovely') built on Oct 20 2013 12:50:05
Writing library                          : libebml v1.3.0 + libmatroska v1.4.1
Video
ID                                       : 1
Format                                   : AVC
Format/Info                              : Advanced Video Codec
Format profile                           : [url=mailto:High@L4.1]High@L4.1[/url]
Format settings, CABAC                   : Yes
Format settings, ReFrames                : 5 frames
Codec ID                                 : V_MPEG4/ISO/AVC
Duration                                 : 1h 57mn
Bit rate                                 : 4 805 Kbps
Width                                    : 1 280 pixels
Height                                   : 534 pixels
Display aspect ratio                     : 2.40:1
Frame rate mode                          : Constant
Frame rate                               : 23.976 fps
Color space                              : YUV
Chroma subsampling                       : 4:2:0
Bit depth                                : 8 bits
Scan type                                : Progressive
Bits/(Pixel*Frame)                       : 0.293
Stream size                              : 3.93 GiB (70%)
Language                                 : English
Default                                  : Yes
Forced                                   : No
Audio #1
ID                                       : 2
Format                                   : AC-3
Format/Info                              : Audio Coding 3
Mode extension                           : CM (complete main)
Format settings, Endianness              : Big
Codec ID                                 : A_AC3
Duration                                 : 1h 57mn
Bit rate mode                            : Constant
Bit rate                                 : 448 Kbps
Channel(s)                               : 6 channels
Channel positions                        : Front: L C R, Side: L R, LFE
Sampling rate                            : 48.0 KHz
Bit depth                                : 16 bits
Compression mode                         : Lossy
Stream size                              : 376 MiB (6%)
Title                                    : Дубляж
Language                                 : Russian
Default                                  : Yes
Forced                                   : No
Audio #2
ID                                       : 3
Format                                   : DTS
Format/Info                              : Digital Theater Systems
Mode                                     : 16
Format settings, Endianness              : Big
Codec ID                                 : A_DTS
Duration                                 : 1h 57mn
Bit rate mode                            : Constant
Bit rate                                 : 1 509 Kbps
Channel(s)                               : 6 channels
Channel positions                        : Front: L C R, Side: L R, LFE
Sampling rate                            : 48.0 KHz
Bit depth                                : 24 bits
Compression mode                         : Lossy
Stream size                              : 1.24 GiB (22%)
Title                                    : Original
Language                                 : English
Default                                  : No
Forced                                   : No
Text #1
ID                                       : 4
Format                                   : PGS
Codec ID                                 : S_HDMV/PGS
Codec ID/Info                            : The same subtitle format used on BDs/HD-DVDs
Language                                 : Russian
Default                                  : No
Forced                                   : No
Text #2
ID                                       : 5
Format                                   : PGS
Codec ID                                 : S_HDMV/PGS
Codec ID/Info                            : The same subtitle format used on BDs/HD-DVDs
Language                                 : Ukrainian
Default                                  : No
Forced                                   : No
Text #3
ID                                       : 6
Format                                   : PGS
Codec ID                                 : S_HDMV/PGS
Codec ID/Info                            : The same subtitle format used on BDs/HD-DVDs
Language                                 : English
Default                                  : No
Forced                                   : No
Text #4
ID                                       : 7
Format                                   : PGS
Codec ID                                 : S_HDMV/PGS
Codec ID/Info                            : The same subtitle format used on BDs/HD-DVDs
Title                                    : SDH
Language                                 : English
Default                                  : No
Forced                                   : No
Menu
00:00:00.000                             : en:00:00:00.000
00:04:44.701                             : en:00:04:44.701
00:07:54.057                             : en:00:07:54.057
00:09:49.589                             : en:00:09:49.589
00:13:45.533                             : en:00:13:45.533
00:20:49.832                             : en:00:20:49.832
00:23:53.098                             : en:00:23:53.098
00:26:31.715                             : en:00:26:31.715
00:34:09.881                             : en:00:34:09.881
00:39:30.660                             : en:00:39:30.660
00:45:38.402                             : en:00:45:38.402
00:48:20.773                             : en:00:48:20.773
00:54:04.158                             : en:00:54:04.158
00:58:46.273                             : en:00:58:46.273
01:00:29.084                             : en:01:00:29.084
01:08:26.352                             : en:01:08:26.352
01:12:55.162                             : en:01:12:55.162
01:17:10.835                             : en:01:17:10.835
01:20:23.736                             : en:01:20:23.736
01:23:28.795                             : en:01:23:28.795
01:25:56.068                             : en:01:25:56.068
01:30:28.590                             : en:01:30:28.590
01:33:16.132                             : en:01:33:16.132
01:38:24.273                             : en:01:38:24.273
01:43:28.577                             : en:01:43:28.577
01:47:40.663                             : en:01:47:40.663
01:49:45.829                             : en:01:49:45.829
01:53:11.618                             : en:01:53:11.618
Скриншоты:

[Цитировать]



Показать сообщения:    

Текущее время: 11-Дек 05:22

Часовой пояс: UTC + 3


Вы не можете начинать темы
Вы не можете отвечать на сообщения
Вы не можете редактировать свои сообщения
Вы не можете удалять свои сообщения
Вы не можете голосовать в опросах
Вы не можете прикреплять файлы к сообщениям
Вы не можете скачивать файлы

!ВНИМАНИЕ!
Сайт не предоставляет электронные версии произведений, а занимается лишь коллекционированием и каталогизацией ссылок, присылаемых и публикуемых на форуме нашими читателями. Если вы являетесь правообладателем какого-либо представленного материала и не желаете, чтобы ссылка на него находилась в нашем каталоге, свяжитесь с нами, и мы незамедлительно удалим ее. Файлы для обмена на трекере предоставлены пользователями сайта, и администрация не несет ответственности за их содержание. Просьба не заливать файлы, защищенные авторскими правами, а также файлы нелегального содержания!