[ Сегодня идет свободное скачивание без начисления Download ]


Статистика раздачи
Нет
 
   
 
Top  
 
 
-Советник / The Counselor (2013) BDRip [1080p]- Год выпуска: 2013
Производство: США, Великобритания, Chockstone Pictures, Scott Free Productions, Kanzaman S.A.
Жанр: Триллер, Криминал, Драма
Перевод: Дублированный [Лицензия]
Субтитры: Вшитые отключаемые
Язык субтитров: Русский, украинский, английский
Дата мировой премьеры: 25 октября 2013
Дата российской премьеры: 31 октября 2013, «Двадцатый Век Фокс СНГ»
Дата выхода DVD релиза: 27 марта 2014, «Двадцатый Век Фокс СНГ»
Режиссер: Ридли Скотт
Продюсер: Майкл Костиган, Марк Хаффам, Кормак МакКарти
Актеры: Майкл Фассбендер, Хавьер Бардем, Брэд Питт, Натали Дормер, Пенелопа Крус, Кэмерон Диаз, Дин Норрис, Джон Легуизамо, Рози Перес, Горан Вишнич
Описание фильма:Успешный адвокат, стоящий практически на вершине успеха и на пороге собственной свадьбы, из любопытства и, конечно, ради денег соглашается на предложение своего давнего знакомого, имеющего тесные связи с преступным миром, перевезти из Мексики в США партию кокаина стоимостью 20 млн. долл.
Продолжительность: 01:57:14
Качество видео: BDRip [1080p] [profile-LQ]
Видеокодек: MPEG-4 AVC/H.264
Битрейт видео: ~9006 Kbps
Размер кадра: 1920x800
Аудио #1: Русский: AC-3, 48.0 KHz, 6 ch, 640 Kbps, CBR
Аудио #2: Английский: AC-3, 48.0 KHz, 6 ch, 640 Kbps, CBR
Сэмпл: Скачать

MediaInfo:

Общее
Уникальный идентификатор : 241461621740674675158678177849228719936 (0xB5A7D1180A2ABE0982105CC43768F740)
Полное имя : E:\Фильмы\Sovetnik.2013.D.BDRip.1080p.mkv
Формат : Matroska
Версия формата : Version 2
Размер файла : 8,59 Гбайт
Продолжительность : 1 ч. 57 м.
Общий поток : 10,5 Мбит/сек
Название фильма : |??| ?? |Alexandr 80| ? | ? |??|
Дата кодирования : UTC 2014-01-30 09:49:35
Программа кодирования : mkvmerge v4.0.0 ('The Stars were mine') сборка от Jun 6 2010 16:18:42
Библиотека кодирования : libebml v1.0.0 + libmatroska v1.0.0
Видео
Идентификатор : 1
Формат : AVC
Формат/Информация : Advanced Video Codec
Профиль формата : High@L4.1
Параметр CABAC формата : Да
Параметр ReFrames формата : 4 кадра
Идентификатор кодека : V_MPEG4/ISO/AVC
Продолжительность : 1 ч. 57 м.
Битрейт : 9006 Кбит/сек
Ширина : 1920 пикселей
Высота : 800 пикселей
Соотношение сторон : 2,40:1
Режим частоты кадров : Постоянный
Частота кадров : 23,976 кадра/сек
Цветовое пространство : YUV
Субдискретизация насыщенности : 4:2:0
Битовая глубина : 8 бит
Тип развёртки : Прогрессивная
Бит/(Пиксели*Кадры) : 0.245
Размер потока : 7,38 Гбайт (86%)
Библиотека кодирования : x264 core 140 r2377+40 929f149 tMod [8-bit@all X86_64]
Настройки программы : cabac=1 / ref=2 / deblock=1:0:0 / analyse=0x3:0x133 / me=hex / subme=2 / psy=1 / fade_compensate=0.00 / psy_rd=1.00:0.00 / mixed_ref=1 / me_range=16 / chroma_me=1 / trellis=2 / 8x8dct=1 / cqm=0 / deadzone=21,11 / fast_pskip=0 / chroma_qp_offset=0 / threads=12 / lookahead_threads=6 / sliced_threads=0 / nr=0 / decimate=0 / interlaced=0 / bluray_compat=0 / constrained_intra=0 / fgo=0 / bframes=2 / b_pyramid=2 / b_adapt=2 / b_bias=0 / direct=1 / weightb=1 / open_gop=0 / weightp=2 / keyint=240 / keyint_min=23 / scenecut=40 / intra_refresh=0 / rc=crf / mbtree=0 / crf=17.4000 / qcomp=0.60 / qpmin=0:0:0 / qpmax=69:69:69 / qpstep=4 / ip_ratio=1.40 / pb_ratio=1.30 / aq=4:0.90 / aq-sensitivity=10.00 / aq-factor=1.00:1.00:1.00 / aq2=0 / aq3=0
Язык : English
Default : Нет
Forced : Нет
Аудио #1
Идентификатор : 2
Формат : AC-3
Формат/Информация : Audio Coding 3
Расширение режима : CM (complete main)
Параметр Endianness формата : Big
Идентификатор кодека : A_AC3
Продолжительность : 1 ч. 57 м.
Вид битрейта : Постоянный
Битрейт : 640 Кбит/сек
Каналы : 6 каналов
Расположение каналов : Front: L C R, Side: L R, LFE
Частота : 48,0 КГц
Битовая глубина : 16 бит
Метод сжатия : С потерями
Размер потока : 537 Мбайт (6%)
Язык : Russian
Default : Да
Forced : Нет
Аудио #2
Идентификатор : 3
Формат : AC-3
Формат/Информация : Audio Coding 3
Расширение режима : CM (complete main)
Параметр Endianness формата : Big
Идентификатор кодека : A_AC3
Продолжительность : 1 ч. 57 м.
Вид битрейта : Постоянный
Битрейт : 640 Кбит/сек
Каналы : 6 каналов
Расположение каналов : Front: L C R, Side: L R, LFE
Частота : 48,0 КГц
Битовая глубина : 16 бит
Метод сжатия : С потерями
Размер потока : 537 Мбайт (6%)
Язык : English
Default : Нет
Forced : Нет
Текст #1
Идентификатор : 4
Формат : PGS
Идентификатор кодека : S_HDMV/PGS
Идентификатор кодека/Информация : The same subtitle format used on BDs/HD-DVDs
Язык : Russian
Default : Нет
Forced : Нет
Текст #2
Идентификатор : 5
Формат : PGS
Идентификатор кодека : S_HDMV/PGS
Идентификатор кодека/Информация : The same subtitle format used on BDs/HD-DVDs
Язык : Ukrainian
Default : Нет
Forced : Нет
Текст #3
Идентификатор : 6
Формат : PGS
Идентификатор кодека : S_HDMV/PGS
Идентификатор кодека/Информация : The same subtitle format used on BDs/HD-DVDs
Язык : English
Default : Нет
Forced : Нет
Текст #4
Идентификатор : 7
Формат : PGS
Идентификатор кодека : S_HDMV/PGS
Идентификатор кодека/Информация : The same subtitle format used on BDs/HD-DVDs
Заголовок : SDH
Язык : English
Default : Нет
Forced : Нет
Меню
00:00:00.000 : en:Chapter 1
00:04:44.701 : en:Chapter 2
00:07:54.056 : en:Chapter 3
00:09:49.588 : en:Chapter 4
00:13:45.532 : en:Chapter 5
00:20:49.831 : en:Chapter 6
00:23:53.098 : en:Chapter 7
00:26:31.715 : en:Chapter 8
00:34:09.881 : en:Chapter 9
00:39:30.659 : en:Chapter 10
00:45:38.402 : en:Chapter 11
00:48:20.772 : en:Chapter 12
00:54:04.157 : en:Chapter 13
00:58:46.272 : en:Chapter 14
01:00:29.083 : en:Chapter 15
01:08:26.352 : en:Chapter 16
01:12:55.162 : en:Chapter 17
01:17:10.834 : en:Chapter 18
01:20:23.735 : en:Chapter 19
01:23:28.795 : en:Chapter 20
01:25:56.067 : en:Chapter 21
01:30:28.589 : en:Chapter 22
01:33:16.132 : en:Chapter 23
01:38:24.273 : en:Chapter 24
01:43:28.577 : en:Chapter 25
01:47:40.662 : en:Chapter 26
01:49:45.829 : en:Chapter 27
01:53:11.618 : en:Chapter 28
Скриншоты:

[Цитировать]



Показать сообщения:    

Текущее время: 20-Фев 13:55

Часовой пояс: UTC + 3


Вы не можете начинать темы
Вы не можете отвечать на сообщения
Вы не можете редактировать свои сообщения
Вы не можете удалять свои сообщения
Вы не можете голосовать в опросах
Вы не можете прикреплять файлы к сообщениям
Вы не можете скачивать файлы

!ВНИМАНИЕ!
Сайт не предоставляет электронные версии произведений, а занимается лишь коллекционированием и каталогизацией ссылок, присылаемых и публикуемых на форуме нашими читателями. Если вы являетесь правообладателем какого-либо представленного материала и не желаете, чтобы ссылка на него находилась в нашем каталоге, свяжитесь с нами, и мы незамедлительно удалим ее. Файлы для обмена на трекере предоставлены пользователями сайта, и администрация не несет ответственности за их содержание. Просьба не заливать файлы, защищенные авторскими правами, а также файлы нелегального содержания!