[ Сегодня идет свободное скачивание без начисления Download ]


Статистика раздачи
Нет
 
   
 
Top  
 
 
Вторая натура / Second Nature
Страна: США
Жанр: Фантастика, триллер, драма, детектив, военный
Год выпуска: 2003
Продолжительность: 01:27:09
Перевод: Профессиональный (многоголосый закадровый)
Cубтитры: нет
Режиссер: Бен Болт / Ben Bolt
В ролях: Алек Болдуин, Пауэрс Бут, Луиза Ломбард, Филип Джексон, Кертис О`Брайэн, Ли Зиммерман, Мишель Остин, Пип Торренс, Кортни Роуэн, Корнелия Винтер
Описание: Очнувшись в больничной палате, Пол Кейн никак не может вспомнить, кто он такой и как сюда попал. Привлекательная женщина, представившаяся как доктор Феллоуз, рассказывает, что Пол попал в авиакатастрофу, в которой погибли его жена и двое маленьких дочерей. Но в памяти Пола начинают оживать смутные воспоминания: винтовка в руке, кажущаяся очень привычным предметом, и застреленный им высокопоставленный чиновник! И что означают его незаурядные навыки в боевых искусствах и наколка на внутренней части губы с надписью «Крутой Вилли»? Так кто же такой Пол? Добропорядочный семьянин, занимавшийся мелким бизнесом, или безжалостный наемный убийца? Пол решает разобраться со своим прошлым, и, как настоящий «профессионал», сделает это, если конечно останется в живых…
Доп. информация: Релиз Кинозал.ТВ
Сэмпл: http://multi-up.com/576516
Качество видео: DVDRip
Формат видео: AVI
Видео: XviD, 704x528 (1.33:1), 25 fps, 1850 kbps avg
Аудио: AC3 Dolby Digita, 48 kHz, 3/2 (L,C,R,l,r) + LFE ch, 384.00 kbps avg

MediaInfo

General
Complete name : D:\Раздачи\Vtoraya.natura.2003.XviD.DVDRip-Kinozal.TV.avi
Format : AVI
Format/Info : Audio Video Interleave
File size : 1.37 GiB
Duration : 1h 27mn
Overall bit rate : 2 244 Kbps
Writing application : VirtualDubMod 1.5.10.2 (build 2540/release)
Writing library : VirtualDubMod build 2540/release
Video
ID : 0
Format : MPEG-4 Visual
Format profile : AdvancedSimple@L5
Format settings, BVOP : Yes
Format settings, QPel : No
Format settings, GMC : No warppoints
Format settings, Matrix : Default (MPEG)
Codec ID : XVID
Codec ID/Hint : XviD
Duration : 1h 27mn
Bit rate : 1 851 Kbps
Width : 704 pixels
Height : 528 pixels
Display aspect ratio : 4/3
Frame rate : 25.000 fps
Resolution : 24 bits
Colorimetry : 4:2:0
Scan type : Progressive
Bits/(Pixel*Frame) : 0.199
Stream size : 1.13 GiB (82%)
Writing library : XviD 1.2.1 (UTC 2008-12-04)
Audio
ID : 1
Format : AC-3
Format/Info : Audio Coding 3
Codec ID : 2000
Duration : 1h 27mn
Bit rate mode : Constant
Bit rate : 384 Kbps
Channel(s) : 6 channels
Channel positions : Front: L C R, Surround: L R, LFE
Sampling rate : 48.0 KHz
Stream size : 239 MiB (17%)
Alignment : Split accross interleaves
Interleave, duration : 40 ms (1.00 video frame)
Interleave, preload duration : 500 ms

[Цитировать]



Показать сообщения:    

Текущее время: 08-Дек 17:15

Часовой пояс: UTC + 3


Вы не можете начинать темы
Вы не можете отвечать на сообщения
Вы не можете редактировать свои сообщения
Вы не можете удалять свои сообщения
Вы не можете голосовать в опросах
Вы не можете прикреплять файлы к сообщениям
Вы не можете скачивать файлы

!ВНИМАНИЕ!
Сайт не предоставляет электронные версии произведений, а занимается лишь коллекционированием и каталогизацией ссылок, присылаемых и публикуемых на форуме нашими читателями. Если вы являетесь правообладателем какого-либо представленного материала и не желаете, чтобы ссылка на него находилась в нашем каталоге, свяжитесь с нами, и мы незамедлительно удалим ее. Файлы для обмена на трекере предоставлены пользователями сайта, и администрация не несет ответственности за их содержание. Просьба не заливать файлы, защищенные авторскими правами, а также файлы нелегального содержания!