[ Сегодня идет свободное скачивание без начисления Download ]


Статистика раздачи
Нет
 
   
 
Top  
 
 
- Интерны (Новогодняя). Серия №181 - -Режиссер / Телекомпания: ТНТ
Русское название: Интерны
Год выпуска: 2013
Жанр: Комедия-Описание:
Главные герои ситкома – четыре интерна. Они все время попадают в идиотские ситуации, а их руководитель доктор Быков (Охлобыстин) с удовольствием за этим наблюдает. Доводить интернов до белого каления Быкову помогает друг доктор Купитман и мешает главврач больницы Анастасия Кисегач. Почти все сюжеты взяты из реальной врачебной практики. Роль доктора, который помимо своей воли становится руководителем практики у четырех оболтусов-интернов, играет Иван Охлобыстин. Священник, актер и сценарист. Учился во ВГИКе, работал режиссером на «Мосфильме», занимался журналистикой, политическим пиаром, сотрудничал с ведущими телеканалами. На его счету – более 30 ролей в кино и более 20 сценариев. Закончил семинарию. В 2001 году отец Иоанн был рукоположен в сан священника. Воспитывает шестерых детей. В ситкоме снимается впервые.-В ролях: Иван Охлобыстин, Вадим Демчог, Светлана Камынина, Александр Ильин мл., Кристина Асмус, Илья Глинников, Дмитрий Шаракоис-Режиссер: Максим Пежемский, Заур Болотаев-Продолжительность: Каждая серия х 00:24:41-Видеокодек: AVC
Битрейт видео: ~2989 kb/s
Размер кадра: 1280 x 720
Качество видео: WEB-DL
Аудиокодек: AC-3, 2ch.
Битрейт аудио: 128 kb/s

MediaInfo

Формат : Matroska
Версия формата : Version 2
Размер файла : 564 Мбайт
Продолжительность : 24 м.
Общий поток : 3180 Кбит/сек
Дата кодирования : UTC 2013-12-31 10:32:26
Программа кодирования : mkvmerge v6.2.0 ('Promised Land') built on Apr 28 2013 12:22:01
Библиотека кодирования : libebml v1.3.0 + libmatroska v1.4.0
Видео
Идентификатор : 1
Формат : AVC
Формат/Информация : Advanced Video Codec
Профиль формата : [email protected]
Параметр CABAC формата : Да
Параметр ReFrames формата : 8 кадров
Идентификатор кодека : V_MPEG4/ISO/AVC
Продолжительность : 24 м.
Битрейт : 2989 Кбит/сек
Ширина : 1280 пикселей
Высота : 720 пикселей
Соотношение сторон : 16:9
Режим частоты кадров : Переменный
Частота кадров : 25,000 кадров/сек
Цветовое пространство : YUV
Субдискретизация насыщенности : 4:2:0
Битовая глубина : 8 бит
Тип развёртки : Прогрессивная
Бит/(Пиксели*Кадры) : 0.130
Размер потока : 530 Мбайт (94%)
Библиотека кодирования : x264 core 125
Настройки программы : cabac=1 / ref=8 / deblock=1:-1:-1 / analyse=0x3:0x133 / me=umh / subme=9 / psy=1 / psy_rd=1.00:0.15 / mixed_ref=1 / me_range=16 / chroma_me=1 / trellis=2 / 8x8dct=1 / cqm=0 / deadzone=21,11 / fast_pskip=1 / chroma_qp_offset=-3 / threads=18 / lookahead_threads=3 / sliced_threads=0 / nr=0 / decimate=1 / interlaced=0 / bluray_compat=0 / constrained_intra=0 / bframes=3 / b_pyramid=2 / b_adapt=2 / b_bias=0 / direct=3 / weightb=1 / open_gop=0 / weightp=2 / keyint=100 / keyint_min=10 / scenecut=40 / intra_refresh=0 / rc_lookahead=60 / rc=crf / mbtree=1 / crf=17.0 / qcomp=0.60 / qpmin=0 / qpmax=69 / qpstep=4 / vbv_maxrate=3600 / vbv_bufsize=3600 / crf_max=0.0 / nal_hrd=none / ip_ratio=1.40 / aq=1:1.00
Default : Да
Forced : Нет
Аудио
Идентификатор : 2
Формат : AC-3
Формат/Информация : Audio Coding 3
Расширение режима : CM (complete main)
Идентификатор кодека : A_AC3
Продолжительность : 24 м.
Вид битрейта : Постоянный
Битрейт : 128 Кбит/сек
Каналы : 2 канала
Расположение каналов : Front: L R
Частота : 44,1 КГц
Битовая глубина : 16 бит
Метод сжатия : С потерями
Размер потока : 22,7 Мбайт (4%)
Default : Да
Forced : Нет

[Цитировать]



Показать сообщения:    

Текущее время: 06-Дек 03:51

Часовой пояс: UTC + 3


Вы не можете начинать темы
Вы не можете отвечать на сообщения
Вы не можете редактировать свои сообщения
Вы не можете удалять свои сообщения
Вы не можете голосовать в опросах
Вы не можете прикреплять файлы к сообщениям
Вы не можете скачивать файлы

!ВНИМАНИЕ!
Сайт не предоставляет электронные версии произведений, а занимается лишь коллекционированием и каталогизацией ссылок, присылаемых и публикуемых на форуме нашими читателями. Если вы являетесь правообладателем какого-либо представленного материала и не желаете, чтобы ссылка на него находилась в нашем каталоге, свяжитесь с нами, и мы незамедлительно удалим ее. Файлы для обмена на трекере предоставлены пользователями сайта, и администрация не несет ответственности за их содержание. Просьба не заливать файлы, защищенные авторскими правами, а также файлы нелегального содержания!