[ Сегодня идет свободное скачивание без начисления Download ]


Статистика раздачи
Нет
 
   
 
Top  
 
 
-Видок / Vidocq - Год выпуска: 2001
Жанр: Триллер, Криминал, Детектив
Описание фильма:
Действия фильма разворачиваются в Париже девятнадцатого века. Город охвачен паникой, уже несколько лет Париж терроризирует неизвестный маньяк, нападающий на мирных жителей города. Поисками преступника, которого парижане прозвали Алхимик, занимается лучший сыщик Парижа по имени Видок, но и ему долгое время не удается выйти на след маньяка. Наконец, Видок находит ниточку, следуя по которой он сможет найти кровавого убийцу. Но чтобы добраться до Алхимика, Видоку придется вывернуть наизнанку весь Париж, ведь Алхимик умен и хитер.
Режиссер: Питоф
Актеры: Жерар Депардье, Гийом Кане, Инес Састре, Андре Дюссолье, Эдит Скоб, Изабелль Рено, Жан-Поль Дюбуа, Андре Пенверн
Продолжительность: 01:37:31
Качество видео: BDRip
Перевод: Дублированный

Дата мировой премьеры: 19 сентября 2001
Дата российской премьеры: 13 декабря 2001
Дата выхода DVD релиза: 25 ноября 2004
Видеокодек: MPEG-4 AVC/H.264
Битрейт видео: ~13.0 kbps, 23.976 fps
Размер кадра: 1920х1080
Аудио1: AC3, 6 ch, 640 kbps Русский дубляж
Аудио2: DTS, 6 ch, 768 kbps Русский дубляж

Mediainfo

Общее
Уникальный идентификатор : 235793951503282162031362926745638263563 (0xB164436074CFD6EC83170338E19DDB0B)
Полное имя : E:\vidok\Vidok.x264.BDRip.1080p.3D.mkv
Формат : Matroska
Версия формата : Version 2
Размер файла : 9,99 Гбайт
Продолжительность : 1 ч. 37 м.
Общий поток : 14,7 Мбит/сек
Название фильма : 3DRip-praesent
Дата кодирования : UTC 2012-06-06 17:31:30
Программа кодирования : mkvmerge v4.0.0 ('The Stars were mine') сборка от Jun 6 2010 16:18:42
Библиотека кодирования : libebml v1.0.0 + libmatroska v1.0.0
Видео
Идентификатор : 1
Формат : AVC
Формат/Информация : Advanced Video Codec
Профиль формата : High@L4.1
Параметр CABAC формата : Да
Параметр ReFrames формата : 2 кадра
Идентификатор кодека : V_MPEG4/ISO/AVC
Продолжительность : 1 ч. 37 м.
Битрейт : 13,0 Мбит/сек
Ширина : 1920 пикселей
Высота : 1080 пикселей
Соотношение сторон : 16:9
Режим частоты кадров : Постоянный
Частота кадров : 23,976 кадра/сек
Цветовое пространство : YUV
Субдискретизация насыщенности : 4:2:0
Битовая глубина : 8 бит
Тип развёртки : Прогрессивная
Бит/(Пиксели*Кадры) : 0.261
Размер потока : 8,84 Гбайт (88%)
Заголовок : 3DRIP-by-Kinozal.TV
Библиотека кодирования : x264 core
Default : Да
Forced : Нет
Основные цвета : BT.709
Характеристики трансфера : BT.709
Коэффициенты матрицы : BT.709
Аудио #1
Идентификатор : 2
Формат : AC-3
Формат/Информация : Audio Coding 3
Расширение режима : CM (complete main)
Параметр Endianness формата : Big
Идентификатор кодека : A_AC3
Продолжительность : 1 ч. 37 м.
Вид битрейта : Постоянный
Битрейт : 640 Кбит/сек
Каналы : 6 каналов
Расположение каналов : Front: L C R, Side: L R, LFE
Частота : 48,0 КГц
Битовая глубина : 16 бит
Метод сжатия : С потерями
Размер потока : 446 Мбайт (4%)
Заголовок : 3DRIP-by-Kinozal.TV
Язык : Russian
Default : Да
Forced : Нет
Аудио #2
Идентификатор : 3
Формат : DTS
Формат/Информация : Digital Theater Systems
Режим : 16
Параметр Endianness формата : Big
Идентификатор кодека : A_DTS
Продолжительность : 1 ч. 37 м.
Вид битрейта : Постоянный
Битрейт : 768 Кбит/сек
Каналы : 6 каналов
Расположение каналов : Front: L C R, Side: L R, LFE
Частота : 48,0 КГц
Битовая глубина : 24 бит
Метод сжатия : С потерями
Размер потока : 535 Мбайт (5%)
Заголовок : 3DRIP-by-Kinozal.TV
Язык : Russian
Default : Нет
Forced : Нет
Меню
00:00:00.000 : en:(01)00:00:00:000
00:05:12.353 : en:(02)00:05:12:353
00:06:45.071 : en:(03)00:06:45:071
00:10:53.986 : en:(04)00:10:53:986
00:14:21.735 : en:(05)00:14:21:735
00:19:24.872 : en:(06)00:19:24:872
00:24:00.480 : en:(07)00:24:00:480
00:31:18.501 : en:(08)00:31:18:501
00:37:00.009 : en:(09)00:37:00:009
00:41:44.919 : en:(10)00:41:44:919
00:47:16.208 : en:(11)00:47:16:208
00:54:22.342 : en:(12)00:54:22:342
01:02:19.777 : en:(13)01:02:19:777
01:12:04.361 : en:(14)01:12:04:361
01:20:29.449 : en:(15)01:20:29:449
01:27:38.586 : en:(16)01:27:38:586
01:32:15.613 : en:(17)01:32:15:613
01:33:59.884 : en:(18)01:33:59:884
01:37:31.846 : en:(19)01:37:31:846
Проверено на встроенном плеере телевизора Samsung D6530

[Цитировать]



Показать сообщения:    

Текущее время: 10-Дек 09:57

Часовой пояс: UTC + 3


Вы не можете начинать темы
Вы не можете отвечать на сообщения
Вы не можете редактировать свои сообщения
Вы не можете удалять свои сообщения
Вы не можете голосовать в опросах
Вы не можете прикреплять файлы к сообщениям
Вы не можете скачивать файлы

!ВНИМАНИЕ!
Сайт не предоставляет электронные версии произведений, а занимается лишь коллекционированием и каталогизацией ссылок, присылаемых и публикуемых на форуме нашими читателями. Если вы являетесь правообладателем какого-либо представленного материала и не желаете, чтобы ссылка на него находилась в нашем каталоге, свяжитесь с нами, и мы незамедлительно удалим ее. Файлы для обмена на трекере предоставлены пользователями сайта, и администрация не несет ответственности за их содержание. Просьба не заливать файлы, защищенные авторскими правами, а также файлы нелегального содержания!