[ Сегодня идет свободное скачивание без начисления Download ]


Статистика раздачи
Нет
 
   
 
Top  
 
 
-Статика / Static «If you hear them coming, you're already dead»- Год выпуска: 2012
Жанр: Ужасы, Триллер, Драма
Описание фильма:
Молодая пара находится на грани развода после смерти ребенка. Жизнь супругов еще больше осложняется с появлением загадочной девушки, овеянной ореолом мистики.-Режиссер: Тодд Левин
Актеры: Майло Вентимилья, Сара Шахи, Сара Пэкстон, Оз Калван, Уильям Мапотер, Доминик Богарт, Люк Барнетт, Бретт Манн, Джон Хэрман, Ахмад Русс
Продолжительность: 01:23:09
Качество видео: BDRip
Перевод: Одноголосый закадровый (den904)-
Дата мировой премьеры: 1 ноября 2012-Видеокодек: MPEG-4 AVC/H.264
Битрейт видео: ~11,4 Мбит/сек
Размер кадра: 1920x1080
Аудио 1: AC3 5.1, 448 kbps [Русский]
Аудио 2: AC3 5.1, 640 kbps [Английский]-

Media info:

Общее
Уникальный идентификатор : 200182962110560818463530493211711886052 (0x9699D60B34AD3A41AF1CCBCD68F3D2E4)
Полное имя : F:\my films\Static_3D.mkv
Формат : Matroska
Версия формата : Version 2
Размер файла : 7,42 Гбайт
Продолжительность : 1 ч. 23 м.
Общий поток : 12,8 Мбит/сек
Название фильма : Static_3D_Crop_O/U
Дата кодирования : UTC 2013-10-29 23:23:54
Программа кодирования : mkvmerge v5.7.0 ('The Whirlwind') built on Aug 7 2012 14:11:40
Библиотека кодирования : libebml v1.2.3 + libmatroska v1.3.0
Видео
Идентификатор : 1
Формат : AVC
Формат/Информация : Advanced Video Codec
Профиль формата : [email protected]
Параметр CABAC формата : Да
Параметр ReFrames формата : 4 кадра
Идентификатор кодека : V_MPEG4/ISO/AVC
Продолжительность : 1 ч. 23 м.
Битрейт : 11,4 Мбит/сек
Ширина : 1920 пикселей
Высота : 1080 пикселей
Соотношение сторон : 16:9
Режим частоты кадров : Постоянный
Частота кадров : 23,976 кадра/сек
Цветовое пространство : YUV
Субдискретизация насыщенности : 4:2:0
Битовая глубина : 8 бит
Тип развёртки : Прогрессивная
Бит/(Пиксели*Кадры) : 0.230
Размер потока : 6,64 Гбайт (89%)
Заголовок : rip by I/N
Библиотека кодирования : x264 core 128 r2216M 198a7ea
Настройки программы : cabac=1 / ref=4 / deblock=1:-3:-3 / analyse=0x3:0x133 / me=umh / subme=10 / psy=1 / psy_rd=1.00:0.15 / mixed_ref=1 / me_range=24 / chroma_me=1 / trellis=2 / 8x8dct=1 / cqm=0 / deadzone=21,11 / fast_pskip=1 / chroma_qp_offset=-3 / threads=8 / lookahead_threads=1 / sliced_threads=0 / nr=0 / decimate=1 / interlaced=0 / bluray_compat=0 / constrained_intra=0 / bframes=6 / b_pyramid=2 / b_adapt=2 / b_bias=0 / direct=3 / weightb=1 / open_gop=0 / weightp=2 / keyint=230 / keyint_min=23 / scenecut=40 / intra_refresh=0 / rc_lookahead=60 / rc=crf / mbtree=1 / crf=16.0 / qcomp=0.60 / qpmin=0 / qpmax=69 / qpstep=4 / vbv_maxrate=40000 / vbv_bufsize=30000 / crf_max=30.0 / nal_hrd=none / ip_ratio=1.40 / aq=1:1.00
Default : Да
Forced : Нет
Аудио #1
Идентификатор : 2
Формат : AC-3
Формат/Информация : Audio Coding 3
Расширение режима : CM (complete main)
Параметр Endianness формата : Big
Идентификатор кодека : A_AC3
Продолжительность : 1 ч. 23 м.
Вид битрейта : Постоянный
Битрейт : 448 Кбит/сек
Каналы : 6 каналов
Расположение каналов : Front: L C R, Side: L R, LFE
Частота : 48,0 КГц
Битовая глубина : 16 бит
Метод сжатия : С потерями
Размер потока : 266 Мбайт (4%)
Заголовок : VO - den904
Язык : Russian
Default : Да
Forced : Нет
Аудио #2
Идентификатор : 3
Формат : AC-3
Формат/Информация : Audio Coding 3
Расширение режима : CM (complete main)
Параметр Endianness формата : Big
Идентификатор кодека : A_AC3
Продолжительность : 1 ч. 23 м.
Вид битрейта : Постоянный
Битрейт : 640 Кбит/сек
Каналы : 6 каналов
Расположение каналов : Front: L C R, Side: L R, LFE
Частота : 48,0 КГц
Битовая глубина : 16 бит
Метод сжатия : С потерями
Задержка видео : 400 мс.
Размер потока : 381 Мбайт (5%)
Заголовок : Original
Язык : English
Default : Нет
Forced : Нет
Меню
00:00:00.000 : en:(01)00:00:00:000
00:10:10.234 : en:(02)00:10:10:234
00:20:08.999 : en:(03)00:20:08:999
00:30:21.820 : en:(04)00:30:21:820
00:39:56.394 : en:(05)00:39:56:394
00:49:45.565 : en:(06)00:49:45:565
00:59:31.693 : en:(07)00:59:31:693
01:10:00.821 : en:(08)01:10:00:821
01:16:57.613 : en:(09)01:16:57:613
Проверено на встроенном плейере ТВ Samsung-D6500

[Цитировать]



Показать сообщения:    

Текущее время: 06-Дек 19:06

Часовой пояс: UTC + 3


Вы не можете начинать темы
Вы не можете отвечать на сообщения
Вы не можете редактировать свои сообщения
Вы не можете удалять свои сообщения
Вы не можете голосовать в опросах
Вы не можете прикреплять файлы к сообщениям
Вы не можете скачивать файлы

!ВНИМАНИЕ!
Сайт не предоставляет электронные версии произведений, а занимается лишь коллекционированием и каталогизацией ссылок, присылаемых и публикуемых на форуме нашими читателями. Если вы являетесь правообладателем какого-либо представленного материала и не желаете, чтобы ссылка на него находилась в нашем каталоге, свяжитесь с нами, и мы незамедлительно удалим ее. Файлы для обмена на трекере предоставлены пользователями сайта, и администрация не несет ответственности за их содержание. Просьба не заливать файлы, защищенные авторскими правами, а также файлы нелегального содержания!