[ Сегодня идет свободное скачивание без начисления Download ]


Статистика раздачи
Нет
 
   
 
Top  
 
 
-Амитивилль 3-D / Amityville 3D «ПРЕДУПРЕЖДЕНИЕ: В этом фильме Вы жертва!»- Год выпуска: 1983
Жанр: Ужасы, Триллер
Описание фильма:
Разоблачив «спиритических мошенников», промышлявших в знаменитом на весь мир амитивилльском «доме с призраками», репортер журнала «Reveal» Джон Бэкстер решает купить себе известную недвижимость, тем более, что просят за проклятый дом сущие копейки. Будучи человеком не суеверным, Джон без страха переезжает в свое новое жилище, но вскоре с ним, его коллегами и родственниками, побывавшими в особняке, начинают происходить странные вещи. Решив дать всему логическое объяснение, Джон приглашает группу специалистов по исследованию паранормальных явлений, появление которых вызывает невиданную по своим масштабам разрушительную силу…-Режиссер: Ричард Флайшер
Актеры: Тони Робертс, Тесс Харпер, Роберт Джой, Кэнди Кларк, Джон Бил, Леора Дэна, Джон Харкинс, Лори Лафлин, Мег Райан, Нилл Бэрри
Продолжительность: 01:33:10
Качество видео: BDRip
Перевод: Многоголосый закадровый (Лицензия R5)-
Рейтинг PG - Рекомендуется присутствие родителей
Возраст 16+ - Зрителям, достигшим 16 лет-Дата мировой премьеры: 18 ноября 1983
Дата выхода DVD релиза: 17 января 2008, «CP-Digital»
Видеокодек: MPEG-4 AVC/H.264
Битрейт видео: ~20,6 Мбит/сек
Размер кадра: 1920x1632
Аудио 1: AC3 5.1, 448 kbps [Русский]
Аудио 2: AC3 5.1, 640 kbps [Английский]-

Media info:

Общее
Уникальный идентификатор : 190223392838540906811769400788670907784 (0x8F1BB15DE6B37C318FA7F64112AE8588)
Полное имя : D:\Full 3Drip\AMITYVILLE_3D.mkv
Формат : Matroska
Версия формата : Version 2
Размер файла : 14,4 Гбайт
Продолжительность : 1 ч. 33 м.
Общий поток : 22,1 Мбит/сек
Название фильма : AMITYVILLE_3D_FULL_O/U
Дата кодирования : UTC 2013-10-13 08:46:17
Программа кодирования : mkvmerge v5.7.0 ('The Whirlwind') built on Aug 7 2012 14:11:40
Библиотека кодирования : libebml v1.2.3 + libmatroska v1.3.0
Видео
Идентификатор : 1
Формат : AVC
Формат/Информация : Advanced Video Codec
Профиль формата : High@L5.1
Параметр CABAC формата : Да
Параметр ReFrames формата : 5 кадров
Идентификатор кодека : V_MPEG4/ISO/AVC
Продолжительность : 1 ч. 33 м.
Битрейт : 20,6 Мбит/сек
Ширина : 1920 пикселей
Высота : 1632 пикселя
Соотношение сторон : 1,176
Соотношение сторон в оригинале : 16:9
Режим частоты кадров : Постоянный
Частота кадров : 23,976 кадра/сек
Цветовое пространство : YUV
Субдискретизация насыщенности : 4:2:0
Битовая глубина : 8 бит
Тип развёртки : Прогрессивная
Бит/(Пиксели*Кадры) : 0.274
Размер потока : 13,4 Гбайт (93%)
Заголовок : rip by I/N
Библиотека кодирования : x264 core 128 r2216M 198a7ea
Настройки программы : cabac=1 / ref=5 / deblock=1:-1:-1 / analyse=0x3:0x133 / me=esa / subme=10 / psy=1 / psy_rd=1.00:0.15 / mixed_ref=1 / me_range=24 / chroma_me=1 / trellis=2 / 8x8dct=1 / cqm=0 / deadzone=21,11 / fast_pskip=1 / chroma_qp_offset=-3 / threads=8 / lookahead_threads=1 / sliced_threads=0 / nr=0 / decimate=1 / interlaced=0 / bluray_compat=0 / constrained_intra=0 / bframes=6 / b_pyramid=2 / b_adapt=2 / b_bias=0 / direct=3 / weightb=1 / open_gop=0 / weightp=2 / keyint=230 / keyint_min=23 / scenecut=40 / intra_refresh=0 / rc_lookahead=60 / rc=crf / mbtree=1 / crf=18.0 / qcomp=0.60 / qpmin=0 / qpmax=69 / qpstep=4 / ip_ratio=1.40 / aq=1:1.00
Default : Да
Forced : Нет
Аудио #1
Идентификатор : 2
Формат : AC-3
Формат/Информация : Audio Coding 3
Расширение режима : CM (complete main)
Параметр Endianness формата : Big
Идентификатор кодека : A_AC3
Продолжительность : 1 ч. 33 м.
Вид битрейта : Постоянный
Битрейт : 448 Кбит/сек
Каналы : 6 каналов
Расположение каналов : Front: L C R, Side: L R, LFE
Частота : 48,0 КГц
Битовая глубина : 16 бит
Метод сжатия : С потерями
Размер потока : 299 Мбайт (2%)
Заголовок : MVO - (Лицензия R5)
Язык : Russian
Default : Да
Forced : Нет
Аудио #2
Идентификатор : 3
Формат : AC-3
Формат/Информация : Audio Coding 3
Расширение режима : CM (complete main)
Параметр Endianness формата : Big
Идентификатор кодека : A_AC3
Продолжительность : 1 ч. 33 м.
Вид битрейта : Постоянный
Битрейт : 640 Кбит/сек
Каналы : 6 каналов
Расположение каналов : Front: L C R, Side: L R, LFE
Частота : 48,0 КГц
Битовая глубина : 16 бит
Метод сжатия : С потерями
Размер потока : 427 Мбайт (3%)
Заголовок : Original
Язык : English
Default : Нет
Forced : Нет
Меню
00:00:00.000 : en:(01)00:00:00:000
00:11:51.335 : en:(02)00:11:51:335
00:18:31.110 : en:(03)00:18:31:110
00:25:33.156 : en:(04)00:25:33:156
00:32:13.556 : en:(05)00:32:13:556
00:39:30.993 : en:(06)00:39:30:993
00:45:13.711 : en:(07)00:45:13:711
00:51:05.062 : en:(08)00:51:05:062
00:57:47.088 : en:(09)00:57:47:088
01:04:31.492 : en:(10)01:04:31:492
01:10:41.237 : en:(11)01:10:41:237
01:17:08.248 : en:(12)01:17:08:248
На встроенных ТВ-плейерах показывать НЕ будет!!!

[Цитировать]



Показать сообщения:    

Текущее время: 09-Дек 18:27

Часовой пояс: UTC + 3


Вы не можете начинать темы
Вы не можете отвечать на сообщения
Вы не можете редактировать свои сообщения
Вы не можете удалять свои сообщения
Вы не можете голосовать в опросах
Вы не можете прикреплять файлы к сообщениям
Вы не можете скачивать файлы

!ВНИМАНИЕ!
Сайт не предоставляет электронные версии произведений, а занимается лишь коллекционированием и каталогизацией ссылок, присылаемых и публикуемых на форуме нашими читателями. Если вы являетесь правообладателем какого-либо представленного материала и не желаете, чтобы ссылка на него находилась в нашем каталоге, свяжитесь с нами, и мы незамедлительно удалим ее. Файлы для обмена на трекере предоставлены пользователями сайта, и администрация не несет ответственности за их содержание. Просьба не заливать файлы, защищенные авторскими правами, а также файлы нелегального содержания!