[ Сегодня идет свободное скачивание без начисления Download ]


Статистика раздачи
Нет
 
   
 
Top  
 
 
-Железный человек 3 / Iron Man 3 - Год выпуска: 2013
Производство: США, Китай / Marvel Studios Inc., Paramount Pictures
Жанр: Фантастика, Боевик, Приключения
Перевод: Дублированный
Субтитры: Отсутствуют
Дата мировой премьеры: 18 апреля 2013
Дата российской премьеры: 2 мая 2013, «WDSSPR»
Дата выхода DVD релиза: 27 августа 2013, «Уолт Дисней Компани СНГ»
Дата выхода BLU-RAY релиза: 27 августа 2013, «Уолт Дисней Компани СНГ»
Режиссер: Шейн Блэк
Продюсер: Кевин Файги, Виктория Алонсо, Митчелл Белл
Актеры: Роберт Дауни мл., Гвинет Пэлтроу, Дон Чидл, Гай Пирс, Бен Кингсли, Джеймс Бэдж Дэйл, Ребекка Холл, Тай Симпкинс, Уильям Сэдлер, Джон Фавро
Роли дублировали: Владимир Зайцев, Инга Сметанина, Михаил Тихонов, Денис Некрасов, Юрий Меншагин
Описание фильма:
Когда мир Старка рушится на его глазах по вине неизвестных противников, Тони жаждет найти виновных и свести с ними счеты. Оказавшись в безвыходной ситуации, Старк может рассчитывать только на себя и свою изобретательность, чтобы защитить тех, кто ему дорог. Это становится настоящим испытанием для героя, которому придется не только сражаться с коварным врагом, но и разобраться в себе, чтобы найти ответ на вопрос, который давно его тревожит: что важнее — человек или костюм?

Рейтинг PG-13 - Детям до 13 лет просмотр не желателен
Возраст 12+ - зрителям, достигшим 12 лет-Продолжительность: 02:10:32
Качество видео: BDRip
Видеокодек: MPEG-4 AVC/H.264
Битрейт видео: ~15,5 Мбит/сек
Размер кадра: 1920x1600
Аудио 1: DTS 5.1, 1509 kbps, [Русский - дублированный «Disney / Buena Vista»]
Аудио 2: AC3 5.1, 640 kbps, [Русский - дублированный «BD-EUR»]
Аудио 3: AC3 5.1, 640 kbps, [Английский - оригинал]-

Media info:

Общее
Уникальный идентификатор : 214738147522961673164414121611983440262 (0xA18D10170C11DBFA871EEDA027C5C986)
Полное имя : G:\Full 3Drip\IRON_MAN_3_3D.mkv
Формат : Matroska
Версия формата : Version 2
Размер файла : 17,0 Гбайт
Продолжительность : 2 ч. 10 м.
Общий поток : 18,7 Мбит/сек
Название фильма : IRON_MAN_3_3D_FULL_O/U
Дата кодирования : UTC 2013-08-25 08:14:23
Программа кодирования : mkvmerge v5.7.0 ('The Whirlwind') built on Aug 7 2012 14:11:40
Библиотека кодирования : libebml v1.2.3 + libmatroska v1.3.0
Видео
Идентификатор : 1
Формат : AVC
Формат/Информация : Advanced Video Codec
Профиль формата : High@L5.1
Параметр CABAC формата : Да
Параметр ReFrames формата : 6 кадров
Идентификатор кодека : V_MPEG4/ISO/AVC
Продолжительность : 2 ч. 10 м.
Битрейт : 15,5 Мбит/сек
Ширина : 1920 пикселей
Высота : 1600 пикселей
Соотношение сторон : 1,200
Соотношение сторон в оригинале : 16:9
Режим частоты кадров : Постоянный
Частота кадров : 23,976 кадра/сек
Цветовое пространство : YUV
Субдискретизация насыщенности : 4:2:0
Битовая глубина : 8 бит
Тип развёртки : Прогрессивная
Бит/(Пиксели*Кадры) : 0.211
Размер потока : 14,2 Гбайт (83%)
Заголовок : rip by I/N
Библиотека кодирования : x264 core 128 r2216M 198a7ea
Настройки программы : cabac=1 / ref=6 / deblock=1:-1:-1 / analyse=0x3:0x133 / me=esa / subme=9 / psy=1 / psy_rd=1.00:0.15 / mixed_ref=1 / me_range=24 / chroma_me=1 / trellis=2 / 8x8dct=1 / cqm=0 / deadzone=21,11 / fast_pskip=1 / chroma_qp_offset=-3 / threads=4 / lookahead_threads=1 / sliced_threads=0 / nr=0 / decimate=1 / interlaced=0 / bluray_compat=0 / constrained_intra=0 / bframes=8 / b_pyramid=2 / b_adapt=2 / b_bias=0 / direct=3 / weightb=1 / open_gop=0 / weightp=2 / keyint=230 / keyint_min=23 / scenecut=40 / intra_refresh=0 / rc_lookahead=60 / rc=crf / mbtree=1 / crf=18.0 / qcomp=0.60 / qpmin=0 / qpmax=69 / qpstep=4 / ip_ratio=1.40 / aq=1:1.00
Default : Да
Forced : Нет
Аудио #1
Идентификатор : 2
Формат : DTS
Формат/Информация : Digital Theater Systems
Режим : 16
Параметр Endianness формата : Big
Идентификатор кодека : A_DTS
Продолжительность : 2 ч. 10 м.
Вид битрейта : Постоянный
Битрейт : 1509 Кбит/сек
Каналы : 6 каналов
Расположение каналов : Front: L C R, Side: L R, LFE
Частота : 48,0 КГц
Битовая глубина : 24 бит
Метод сжатия : С потерями
Размер потока : 1,38 Гбайт (8%)
Заголовок : Дубляж [Disney / Buena Vista]
Язык : Russian
Default : Да
Forced : Нет
Аудио #2
Идентификатор : 3
Формат : AC-3
Формат/Информация : Audio Coding 3
Расширение режима : CM (complete main)
Параметр Endianness формата : Big
Идентификатор кодека : A_AC3
Продолжительность : 2 ч. 10 м.
Вид битрейта : Постоянный
Битрейт : 640 Кбит/сек
Каналы : 6 каналов
Расположение каналов : Front: L C R, Side: L R, LFE
Частота : 48,0 КГц
Битовая глубина : 16 бит
Метод сжатия : С потерями
Размер потока : 598 Мбайт (3%)
Заголовок : Дубляж [BD-EUR]
Язык : Russian
Default : Нет
Forced : Нет
Аудио #3
Идентификатор : 4
Формат : AC-3
Формат/Информация : Audio Coding 3
Расширение режима : CM (complete main)
Параметр Endianness формата : Big
Идентификатор кодека : A_AC3
Продолжительность : 2 ч. 10 м.
Вид битрейта : Постоянный
Битрейт : 640 Кбит/сек
Каналы : 6 каналов
Расположение каналов : Front: L C R, Side: L R, LFE
Частота : 48,0 КГц
Битовая глубина : 16 бит
Метод сжатия : С потерями
Размер потока : 598 Мбайт (3%)
Заголовок : Original
Язык : English
Default : Нет
Forced : Нет
Меню
00:00:00.000 : en:(01)00:00:00:000
00:04:52.750 : en:(02)00:04:52:750
00:07:55.433 : en:(03)00:07:55:433
00:12:12.440 : en:(04)00:12:12:440
00:19:04.101 : en:(05)00:19:04:101
00:23:47.884 : en:(06)00:23:47:884
00:29:47.702 : en:(07)00:29:47:702
00:39:46.384 : en:(08)00:39:46:384
00:45:56.044 : en:(09)00:45:56:044
00:59:19.639 : en:(10)00:59:19:639
01:01:56.921 : en:(11)01:01:56:921
01:09:24.451 : en:(12)01:09:24:451
01:18:41.508 : en:(13)01:18:41:508
01:23:52.944 : en:(14)01:23:52:944
01:37:55.995 : en:(15)01:37:55:995
01:56:18.304 : en:(16)01:56:18:304
01:59:38.754 : en:(17)01:59:38:754
02:10:32.616 : en:(18)02:10:32:616

Особенности релиза:

Рип сделан в формате 16:9 - специально для корректного воспроизведения 3Dсофт-плеерами сразу в полный экран.
Воспроизведение проверенно: Arcsoft TMT5,6 и Cyberlink PowerDVD12,13
Всем приятного просмотра!
На встроенных ТВ-плейерах показывать НЕ будет!!!

[Цитировать]



Показать сообщения:    

Текущее время: 10-Дек 08:08

Часовой пояс: UTC + 3


Вы не можете начинать темы
Вы не можете отвечать на сообщения
Вы не можете редактировать свои сообщения
Вы не можете удалять свои сообщения
Вы не можете голосовать в опросах
Вы не можете прикреплять файлы к сообщениям
Вы не можете скачивать файлы

!ВНИМАНИЕ!
Сайт не предоставляет электронные версии произведений, а занимается лишь коллекционированием и каталогизацией ссылок, присылаемых и публикуемых на форуме нашими читателями. Если вы являетесь правообладателем какого-либо представленного материала и не желаете, чтобы ссылка на него находилась в нашем каталоге, свяжитесь с нами, и мы незамедлительно удалим ее. Файлы для обмена на трекере предоставлены пользователями сайта, и администрация не несет ответственности за их содержание. Просьба не заливать файлы, защищенные авторскими правами, а также файлы нелегального содержания!