[ Сегодня идет свободное скачивание без начисления Download ]


Статистика раздачи
Нет
 
   
 
Top  
 
 
Карающая сила / Avenging Force- Год выпуска: 1986
Страна: США
Жанр: боевик, триллер, драма
Продолжительность: 01:39:00
Перевод: Профессиональный (многоголосый закадровый)
Субтитры: Нет-В ролях: Майкл Дудикофф, Стив Джеймс, Джеймс Бут, Уильям Уоллес, Джон П. Райан, Карл Джонсон, Марк Алаймо, Лорен Фармер, Рик Бойл-Режиссёр: Сэм Фёрстенберг- -Бывший секретный агент Мэтт Хантер приходит на помощь своему чернокожему другу Ларри, на которого готовят покушение террористы. Им удается убить всю семью Ларри и похитить младшую сестру Мэтта. Ему предстоит неравная схватка...-[imdb]tt0090678[/imdb] [kp]22633[/kp]-Качество: DVDRip
Формат: AVI
Видео кодек: XviD
Аудио кодек: АС3
Видео: XviD, 704x528, 1767 Кбит/сек, 25.000 кадр/сек
Аудио 1: АС3, 192 Кбит/сек, 2 канала(ов), 48,0 КГц

MediaInfo:

General
Complete name : C:\Users\Електростаил\Desktop\Рипы\Karaushaja.sila.1986.XviD.DVDRip-Kinozal.tv.avi
Format : AVI
Format/Info : Audio Video Interleave
File size : 1.36 GiB
Duration : 1h 39mn
Overall bit rate : 1 969 Kbps
Writing application : VirtualDubMod 1.5.10.2 (build 2540/release)
Writing library : VirtualDubMod build 2540/release
Video
ID : 0
Format : MPEG-4 Visual
Format profile : Advanced Simple@L5
Format settings, BVOP : Yes
Format settings, QPel : No
Format settings, GMC : No warppoints
Format settings, Matrix : Default (MPEG)
Codec ID : XVID
Codec ID/Hint : XviD
Duration : 1h 39mn
Bit rate : 1 767 Kbps
Width : 704 pixels
Height : 528 pixels
Display aspect ratio : 4:3
Frame rate : 25.000 fps
Color space : YUV
Chroma subsampling : 4:2:0
Bit depth : 8 bits
Scan type : Progressive
Compression mode : Lossy
Bits/(Pixel*Frame) : 0.190
Stream size : 1.22 GiB (90%)
Writing library : XviD 1.2.1 (UTC 2008-12-04)
Audio
ID : 1
Format : AC-3
Format/Info : Audio Coding 3
Mode extension : CM (complete main)
Format settings, Endianness : Big
Codec ID : 2000
Duration : 1h 38mn
Bit rate mode : Constant
Bit rate : 192 Kbps
Channel count : 2 channels
Channel positions : Front: L R
Sampling rate : 48.0 KHz
Bit depth : 16 bits
Compression mode : Lossy
Stream size : 136 MiB (10%)
Alignment : Split accross interleaves
Interleave, duration : 40 ms (1.00 video frame)
Interleave, preload duration : 500 ms
-

[Цитировать]



Показать сообщения:    

Текущее время: 08-Дек 19:06

Часовой пояс: UTC + 3


Вы не можете начинать темы
Вы не можете отвечать на сообщения
Вы не можете редактировать свои сообщения
Вы не можете удалять свои сообщения
Вы не можете голосовать в опросах
Вы не можете прикреплять файлы к сообщениям
Вы не можете скачивать файлы

!ВНИМАНИЕ!
Сайт не предоставляет электронные версии произведений, а занимается лишь коллекционированием и каталогизацией ссылок, присылаемых и публикуемых на форуме нашими читателями. Если вы являетесь правообладателем какого-либо представленного материала и не желаете, чтобы ссылка на него находилась в нашем каталоге, свяжитесь с нами, и мы незамедлительно удалим ее. Файлы для обмена на трекере предоставлены пользователями сайта, и администрация не несет ответственности за их содержание. Просьба не заливать файлы, защищенные авторскими правами, а также файлы нелегального содержания!