[ Сегодня идет свободное скачивание без начисления Download ]


Статистика раздачи
Нет
 
   
 
 
 
-Живые Пейзажи: Красивейшие Уголки Земли / Living Landscapes: Earthscapes - The World's Most Beautiful Places (2007) BDRip [H.264/720p]- Режиссер / Телекомпания: Майкл Хьюман
Страна: США
Год выпуска: 2007
Жанр: Видовой, релакс
Описание: Коллекция "Живые пейзажи" - это серия программ высокой четкости изображения, предназначенных для создания эффекта присутствия среди самых прекрасных ландшафтов во всем мире.
Эти великолепные программы вносят в вашу домашнюю обстановку реальную жизнь волшебством видео высокой четкости изображения и объемного звука.
Еще один выпуск серии "Живых пейзажей" для ценителей видового видео. На этот раз Майкл Хьюман решил не мудрствовать лукаво и сделал попурри из своих девяти фильмов:
- Коста-Рика
- Бали
- Священные Каньоны Юго-Запада Америки
- Калифорнийские секвойи
- Тихоокеанское побережье
- Гавайские острова
- Скалистые горы
- Осень в лесах Новой Англии
- Тропический лес Олимпик
Продолжительность: ~01:17:04
Перевод: Не требуется (нет диалогов и комментариев)
Видеокодек: MPEG-4 AVC/H.264
Битрейт видео: ~7 670 Кбит/с
Размер кадра: 1280 x 720
Качество видео: BDRip [720p]
Аудио:
1. [русский] AC3, 5.1 ch, 448 Кбит/с

MediaInfo

General
Unique ID : 181943398020028773446243490870582076896 (0x88E1061A93BAB93380413234347065E0)
Complete name : D:\TORRENTS\!!! РЕЛИЗЫ\Living.Landscapes.The.World's.Most.Beautiful.Places.BDRip.720p.mkv
Format : Matroska
Format version : Version 1
File size : 4.36 GiB
Duration : 1h 17mn
Overall bit rate : 8 108 Kbps
Encoded date : UTC 2008-12-21 11:58:14
Writing application : mkvmerge v2.4.0 ('Fumbling Towards Ecstasy') built on Oct 11 2008 20:13:15
Writing library : libebml v0.7.7 + libmatroska v0.8.1
Video
ID : 1
Format : AVC
Format/Info : Advanced Video Codec
Format profile : [email protected]
Format settings, CABAC : Yes
Format settings, ReFrames : 8 frames
Codec ID : V_MPEG4/ISO/AVC
Duration : 1h 17mn
Bit rate : 7 676 Kbps
Width : 1 280 pixels
Height : 720 pixels
Display aspect ratio : 16:9
Frame rate mode : Constant
Frame rate : 29.970 fps
Color space : YUV
Chroma subsampling : 4:2:0
Bit depth : 8 bits
Scan type : Progressive
Bits/(Pixel*Frame) : 0.278
Stream size : 4.04 GiB (92%)
Writing library : x264 core 65 r1057M 5f8a149
Encoding settings : cabac=1 / ref=8 / deblock=1:0:0 / analyse=0x3:0x133 / me=esa / subme=6 / psy_rd=1.0:0.0 / mixed_ref=1 / me_range=32 / chroma_me=1 / trellis=2 / 8x8dct=1 / cqm=0 / deadzone=21,11 / chroma_qp_offset=-2 / threads=3 / nr=100 / decimate=1 / mbaff=0 / bframes=2 / b_pyramid=1 / b_adapt=2 / b_bias=0 / direct=2 / wpredb=1 / keyint=250 / keyint_min=25 / scenecut=40(pre) / rc=abr / bitrate=7676 / ratetol=0.5 / qcomp=0.60 / qpmin=10 / qpmax=51 / qpstep=4 / ip_ratio=1.40 / pb_ratio=1.30 / aq=1:1.00
Language : English
Default : Yes
Forced : No
Audio
ID : 2
Format : AC-3
Format/Info : Audio Coding 3
Mode extension : CM (complete main)
Format settings, Endianness : Big
Codec ID : A_AC3
Duration : 1h 17mn
Bit rate mode : Constant
Bit rate : 448 Kbps
Channel(s) : 6 channels
Channel positions : Front: L C R, Side: L R, LFE
Sampling rate : 48.0 KHz
Bit depth : 16 bits
Compression mode : Lossy
Stream size : 247 MiB (6%)
Default : Yes
Forced : No
Скриншоты:

[Цитировать]



Показать сообщения:    

Текущее время: 06-Дек 22:58

Часовой пояс: UTC + 3


Вы не можете начинать темы
Вы не можете отвечать на сообщения
Вы не можете редактировать свои сообщения
Вы не можете удалять свои сообщения
Вы не можете голосовать в опросах
Вы не можете прикреплять файлы к сообщениям
Вы не можете скачивать файлы

!ВНИМАНИЕ!
Сайт не предоставляет электронные версии произведений, а занимается лишь коллекционированием и каталогизацией ссылок, присылаемых и публикуемых на форуме нашими читателями. Если вы являетесь правообладателем какого-либо представленного материала и не желаете, чтобы ссылка на него находилась в нашем каталоге, свяжитесь с нами, и мы незамедлительно удалим ее. Файлы для обмена на трекере предоставлены пользователями сайта, и администрация не несет ответственности за их содержание. Просьба не заливать файлы, защищенные авторскими правами, а также файлы нелегального содержания!