[ Сегодня идет свободное скачивание без начисления Download ]


Статистика раздачи
Скачал: [ 1 ]
 
   
 
Top  
 
 
Раздача обновлена 03.12.2012 в 14:00 по мск!
Предыдущий релиз скачали 12092 раз + предпредыдущий 13436 раз.

изменения и дополнения:

1) убран сольник Князя (в отдельной дискографии Князя есть)
2) добавлены сканы к альбому "Камнем по голове" (переиздание 2007 года)
3) добавлен альбом TODD.2
-
Жанр: Rock || Страна исполнителя: Россия
Аудио кодек: FLAC (*.flac) || Тип рипа: image+.cue || Битрейт аудио: lossless
Продолжительность: 24 CD || Наличие сканов в раздаче: да (кроме указанного)
Качество рипов: соответствует требованиям
Треклист:

1996 - Камнем по Голове (1999, Manchester Files)

01. Смельчак и ветер (3:01)
02. Проказник скоморох (1:52)
03. Верная жена (2:37)
04. Садовник (3:42)
05. Блуждают тени (2:12)
06. Внезапная голова (2:25)
07. Шар голубой (автор неизвестен) (1:15)
08. Злодей и шапка (2:16)
09. От женщин кругом голова (1:31)
10. Рыбак (1:17)
11. Мотоцикл (2:37)
12. Холодное тело (2:41)
13. Дурак и молния (1:54)
14. Леший обиделся (2:53)
15. Два вора и монета (2:16)
16. Любовь и пропеллер (2:55)
17. Камнем по голове (2:38)
18. С тех пор как он ушел (2:17)
19. В доме суета (2:30)
20. Лесные разбойники (3:56)
21. Мария (4:03)

Лог создания рипа

Exact Audio Copy V1.0 beta 1 from 15. November 2010
EAC extraction logfile from 20. March 2011, 17:53
Король и Шут / Камнем по Голове (1999, Manchester Files)
Used drive : ASUS DRW-24B1LT Adapter: 11 ID: 12
Read mode : SecureUtilize accurate stream : YesDefeat audio cache : YesMake use of C2 pointers : No
Read offset correction : 6Overread into Lead-In and Lead-Out : NoFill up missing offset samples with silence : YesDelete leading and trailing silent blocks : NoNull samples used in CRC calculations : YesUsed interface : Native Win32 interface for Win NT & 2000
Used output format : User Defined EncoderSelected bitrate : 1024 kBit/sQuality : HighAdd ID3 tag : NoCommand line compressor : C:\Program Files (x86)\Exact Audio Copy\Flac\flac.exeAdditional command line options : -8 -V %s
TOC of the extracted CD
Track | Start | Length | Start sector | End sector --------------------------------------------------------- 1 | 0:00.15 | 3:01.02 | 15 | 13591 2 | 3:01.17 | 1:52.03 | 13592 | 21994 3 | 4:53.20 | 2:37.37 | 21995 | 33806 4 | 7:30.57 | 3:42.03 | 33807 | 50459 5 | 11:12.60 | 2:11.50 | 50460 | 60334 6 | 13:24.35 | 2:24.62 | 60335 | 71196 7 | 15:49.22 | 1:14.60 | 71197 | 76806 8 | 17:04.07 | 2:16.18 | 76807 | 87024 9 | 19:20.25 | 1:30.45 | 87025 | 93819 10 | 20:50.70 | 1:16.65 | 93820 | 99584 11 | 22:07.60 | 2:37.00 | 99585 | 111359 12 | 24:44.60 | 2:40.50 | 111360 | 123409 13 | 27:25.35 | 1:54.32 | 123410 | 131991 14 | 29:19.67 | 2:52.38 | 131992 | 144929 15 | 32:12.30 | 2:16.10 | 144930 | 155139 16 | 34:28.40 | 2:55.25 | 155140 | 168289 17 | 37:23.65 | 2:37.72 | 168290 | 180136 18 | 40:01.62 | 2:16.58 | 180137 | 190394 19 | 42:18.45 | 2:29.47 | 190395 | 201616 20 | 44:48.17 | 3:55.43 | 201617 | 219284 21 | 48:43.60 | 4:03.12 | 219285 | 237521
Range status and errors
Selected range
Filename H:\ПОДГОТОВКА\Король и Шут\1996 - Камнем по Голове (1999, Manchester Files)\Король и Шут - Камнем по Голове (1999, Manchester Files).wav
Peak level 96.6 % Extraction speed 0.6 X Range quality 100.0 % Copy CRC 3FA4C9D1 Copy OK
No errors occurred
AccurateRip summary
Track 1 accurately ripped (confidence 3) [CF8F9E7D]Track 2 accurately ripped (confidence 3) [9C7C45DC]Track 3 accurately ripped (confidence 3) [A5123E3C]Track 4 accurately ripped (confidence 3) [4A6B6A3D]Track 5 accurately ripped (confidence 3) [D393EBE2]Track 6 accurately ripped (confidence 3) [211FDBB9]Track 7 accurately ripped (confidence 3) [0E41FE47]Track 8 accurately ripped (confidence 3) [B3D8DF55]Track 9 accurately ripped (confidence 3) [007F1C3A]Track 10 accurately ripped (confidence 3) [7AAF659D]Track 11 accurately ripped (confidence 3) [92BFE47E]Track 12 accurately ripped (confidence 3) [C3957F98]Track 13 accurately ripped (confidence 3) [E18E66EF]Track 14 accurately ripped (confidence 3) [E36C37ED]Track 15 accurately ripped (confidence 3) [39085E37]Track 16 accurately ripped (confidence 3) [063A4B93]Track 17 accurately ripped (confidence 3) [50DBD180]Track 18 accurately ripped (confidence 3) [5DE5F73F]Track 19 accurately ripped (confidence 3) [0576FD7B]Track 20 accurately ripped (confidence 3) [2BBAEC3C]Track 21 accurately ripped (confidence 3) [EEC6BE57]
All tracks accurately ripped
End of status report

1996 - Камнем по Голове (2007, Никитин) [no covers]

01. Смельчак и ветер (3:01)
02. Проказник скоморох (1:52)
03. Верная жена (2:37)
04. Садовник (3:42)
05. Блуждают тени (2:12)
06. Внезапная голова (2:25)
07. Шар голубой (1:15)
08. Злодей и шапка (2:16)
09. От женщин кругом голова (1:31)
10. Рыбак (1:17)
11. Мотоцикл (2:37)
12. Холодное тело (2:41)
13. Дурак и молния (1:54)
14. Леший обиделся (2:53)
15. Два вора и монета (2:16)
16. Любовь и пропеллер (2:55)
17. Камнем по голове (2:38)
18. С тех пор как он ушёл (2:17)
19. В доме суета (2:30)
20. Лесные разбойники (3:56)
21. Мария (4:03)

Лог создания рипа

Exact Audio Copy V0.99 prebeta 4 from 23. January 2008
EAC extraction logfile from 29. July 2008, 15:57
Король и Шут / Камнем по голове (переиздание)
Used drive : Optiarc DVD RW AD-7173S Adapter: 2 ID: 0
Read mode : SecureUtilize accurate stream : YesDefeat audio cache : YesMake use of C2 pointers : No
Read offset correction : 48Overread into Lead-In and Lead-Out : NoFill up missing offset samples with silence : YesDelete leading and trailing silent blocks : NoNull samples used in CRC calculations : YesUsed interface : Native Win32 interface for Win NT & 2000
Used output format : Internal WAV RoutinesSample format : 44.100 Hz; 16 Bit; Stereo
TOC of the extracted CD
Track | Start | Length | Start sector | End sector --------------------------------------------------------- 1 | 0:00.15 | 3:01.02 | 15 | 13591 2 | 3:01.17 | 1:52.03 | 13592 | 21994 3 | 4:53.20 | 2:37.37 | 21995 | 33806 4 | 7:30.57 | 3:42.03 | 33807 | 50459 5 | 11:12.60 | 2:11.50 | 50460 | 60334 6 | 13:24.35 | 2:24.62 | 60335 | 71196 7 | 15:49.22 | 1:14.60 | 71197 | 76806 8 | 17:04.07 | 2:16.18 | 76807 | 87024 9 | 19:20.25 | 1:30.45 | 87025 | 93819 10 | 20:50.70 | 1:16.65 | 93820 | 99584 11 | 22:07.60 | 2:37.00 | 99585 | 111359 12 | 24:44.60 | 2:40.50 | 111360 | 123409 13 | 27:25.35 | 1:54.32 | 123410 | 131991 14 | 29:19.67 | 2:52.38 | 131992 | 144929 15 | 32:12.30 | 2:16.10 | 144930 | 155139 16 | 34:28.40 | 2:55.25 | 155140 | 168289 17 | 37:23.65 | 2:37.72 | 168290 | 180136 18 | 40:01.62 | 2:16.58 | 180137 | 190394 19 | 42:18.45 | 2:29.47 | 190395 | 201616 20 | 44:48.17 | 3:55.43 | 201617 | 219284 21 | 48:43.60 | 4:03.12 | 219285 | 237521
Range status and errors
Selected range
Filename C:\Documents and Settings\йцу\Мои документы\Моя музыка\Король и Шут - Камнем по голове (переиздание).wav
Peak level 96.6 % Range quality 100.0 % Copy CRC C675FF8F Copy OK
No errors occurred
End of status report

1996 - Король и Шут (Будь как дома, Путник…) (2000, Nox Music)

01. Король и Шут (2:42)
02. Два друга и разбойники (2:15)
03. Сапоги мертвеца (2:30)
04. Охотник (2:36)
05. Паника в селе (3:17)
06. Истинный убийца (2:02)
07. Лесник (3:12)
08. Помоги мне! (2:27)
09. История о мертвой женщине (3:43)
10. Кукольный театр (2:52)
11. Валет и Дама (3:32)
12. Веселые тролли (3:32)
13. Он не знает, что такое жизнь! (2:17)
14. Отец и маски (3:04)
15. Сказка про дракона (2:54)
16. Инструмент (2:05)
17. Собрание (4:03)

Лог создания рипа

Exact Audio Copy V1.0 beta 1 from 15. November 2010
EAC extraction logfile from 20. March 2011, 18:24
Король и Шут / Будь как дома, Путник… (2000, Nox Music)
Used drive : ASUS DRW-24B1LT Adapter: 11 ID: 12
Read mode : SecureUtilize accurate stream : YesDefeat audio cache : YesMake use of C2 pointers : No
Read offset correction : 6Overread into Lead-In and Lead-Out : NoFill up missing offset samples with silence : YesDelete leading and trailing silent blocks : NoNull samples used in CRC calculations : YesUsed interface : Native Win32 interface for Win NT & 2000
Used output format : User Defined EncoderSelected bitrate : 1024 kBit/sQuality : HighAdd ID3 tag : NoCommand line compressor : C:\Program Files (x86)\Exact Audio Copy\Flac\flac.exeAdditional command line options : -8 -V %s
TOC of the extracted CD
Track | Start | Length | Start sector | End sector --------------------------------------------------------- 1 | 0:00.00 | 2:41.39 | 0 | 12113 2 | 2:41.39 | 2:14.66 | 12114 | 22229 3 | 4:56.30 | 2:29.66 | 22230 | 33470 4 | 7:26.21 | 2:35.73 | 33471 | 45168 5 | 10:02.19 | 3:16.68 | 45169 | 59936 6 | 13:19.12 | 2:02.13 | 59937 | 69099 7 | 15:21.25 | 3:11.48 | 69100 | 83472 8 | 18:32.73 | 2:26.39 | 83473 | 94461 9 | 20:59.37 | 3:43.13 | 94462 | 111199 10 | 24:42.50 | 2:52.28 | 111200 | 124127 11 | 27:35.03 | 3:31.44 | 124128 | 139996 12 | 31:06.47 | 3:32.31 | 139997 | 155927 13 | 34:39.03 | 2:17.11 | 155928 | 166213 14 | 36:56.14 | 3:03.60 | 166214 | 179998 15 | 39:59.74 | 2:53.73 | 179999 | 193046 16 | 42:53.72 | 2:04.59 | 193047 | 202405 17 | 44:58.56 | 4:03.34 | 202406 | 220664 18 | 51:34.15 | 3:17.57 | 232065 | 246896
Range status and errors
Selected range
Filename H:\ПОДГОТОВКА\Король и Шут\1996 - Король и Шут (Будь как дома, Путник…) (2000, Nox Music)\Король и Шут - Будь как дома, Путник… (2000, Nox Music).wav
Peak level 99.9 % Extraction speed 0.5 X Range quality 100.0 % Copy CRC EFD1665B Copy OK
No errors occurred
AccurateRip summary
Track 1 cannot be verified as accurate (confidence 3) [3CFA4949], AccurateRip returned [5B1BE7E9]Track 2 cannot be verified as accurate (confidence 3) [E66F05C5], AccurateRip returned [ED48E54D]Track 3 cannot be verified as accurate (confidence 3) [3873BF7E], AccurateRip returned [33029C86]Track 4 cannot be verified as accurate (confidence 3) [7A944D6C], AccurateRip returned [C83129F4]Track 5 cannot be verified as accurate (confidence 3) [98FFE0EE], AccurateRip returned [13D99406]Track 6 cannot be verified as accurate (confidence 3) [69ABC424], AccurateRip returned [C729F044]Track 7 cannot be verified as accurate (confidence 3) [AE075B68], AccurateRip returned [EA0B9F68]Track 8 cannot be verified as accurate (confidence 3) [16F061CF], AccurateRip returned [FA627347]Track 9 cannot be verified as accurate (confidence 3) [F241B1CD], AccurateRip returned [5EE15645]Track 10 cannot be verified as accurate (confidence 3) [4B4287DD], AccurateRip returned [A7223B2D]Track 11 cannot be verified as accurate (confidence 3) [378DECEC], AccurateRip returned [AD214D4C]Track 12 cannot be verified as accurate (confidence 3) [A3DDF0ED], AccurateRip returned [DDF8DA8D]Track 13 cannot be verified as accurate (confidence 3) [78C12010], AccurateRip returned [4EB1E4B8]Track 14 cannot be verified as accurate (confidence 3) [C8AC38BD], AccurateRip returned [B4694E1D]Track 15 cannot be verified as accurate (confidence 3) [61296F04], AccurateRip returned [31129E14]Track 16 cannot be verified as accurate (confidence 3) [71C4121D], AccurateRip returned [8774E6D5]Track 17 cannot be verified as accurate (confidence 2) [B2F300C6], AccurateRip returned [5559C2EA]
No tracks could be verified as accurateYou may have a different pressing from the one(s) in the database
End of status report

1999 - Акустический альбом (2000, Nox Music)

01. Кукла колдуна (3:22)
02. Наблюдатель (4:43)
03. Бедняжка (4:08)
04. Прыгну со скалы (3:11)
05. Девушка и Граф (4:31)
06. Песня мушкетеров (3:47)
07. Тяни! (2:54)
08. Утренний рассвет (2:27)
09. Сосиска (2:10)
10. Карапуз (2:32)
11. Спятил отец (3:28)
12. Ведьма и Осел (2:55)
13. Екатерина (2:11)
14. Прерванная любовь, или Арбузная корка (2:56)
15. Мотоцикл (2:08)
16. Голые коки (2:37)
17. Забытые ботинки (2:46)

Лог создания рипа

Exact Audio Copy V1.0 beta 1 from 15. November 2010
EAC extraction logfile from 20. March 2011, 18:43
Король и Шут / Акустический альбом (2000, Nox Music)
Used drive : ASUS DRW-24B1LT Adapter: 11 ID: 12
Read mode : SecureUtilize accurate stream : YesDefeat audio cache : YesMake use of C2 pointers : No
Read offset correction : 6Overread into Lead-In and Lead-Out : NoFill up missing offset samples with silence : YesDelete leading and trailing silent blocks : NoNull samples used in CRC calculations : YesUsed interface : Native Win32 interface for Win NT & 2000
Used output format : User Defined EncoderSelected bitrate : 1024 kBit/sQuality : HighAdd ID3 tag : NoCommand line compressor : C:\Program Files (x86)\Exact Audio Copy\Flac\flac.exeAdditional command line options : -8 -V %s
TOC of the extracted CD
Track | Start | Length | Start sector | End sector --------------------------------------------------------- 1 | 0:00.00 | 3:22.03 | 0 | 15152 2 | 3:22.03 | 4:42.44 | 15153 | 36346 3 | 8:04.47 | 4:07.70 | 36347 | 54941 4 | 12:12.42 | 3:10.38 | 54942 | 69229 5 | 15:23.05 | 4:31.25 | 69230 | 89579 6 | 19:54.30 | 3:47.21 | 89580 | 106625 7 | 23:41.51 | 2:53.71 | 106626 | 119671 8 | 26:35.47 | 2:27.19 | 119672 | 130715 9 | 29:02.66 | 2:10.25 | 130716 | 140490 10 | 31:13.16 | 2:32.24 | 140491 | 151914 11 | 33:45.40 | 3:27.58 | 151915 | 167497 12 | 37:13.23 | 2:55.26 | 167498 | 180648 13 | 40:08.49 | 2:10.54 | 180649 | 190452 14 | 42:19.28 | 2:55.65 | 190453 | 203642 15 | 45:15.18 | 2:08.26 | 203643 | 213268 16 | 47:23.44 | 2:37.32 | 213269 | 225075 17 | 50:01.01 | 2:46.27 | 225076 | 237552
Range status and errors
Selected range
Filename H:\ПОДГОТОВКА\Король и Шут\1999 - Акустический альбом (2000, Nox Music)\Король и Шут - Акустический альбом (2000, Nox Music).wav
Peak level 99.5 % Extraction speed 0.4 X Range quality 100.0 % Copy CRC 99D42345 Copy OK
No errors occurred
AccurateRip summary
Track 1 cannot be verified as accurate (confidence 2) [801779E7], AccurateRip returned [18D4E497]Track 2 cannot be verified as accurate (confidence 2) [CE9FE872], AccurateRip returned [5B2490EE]Track 3 cannot be verified as accurate (confidence 2) [9B4E7B24], AccurateRip returned [3799D564]Track 4 cannot be verified as accurate (confidence 2) [1FC55F03], AccurateRip returned [1258C4A8]Track 5 cannot be verified as accurate (confidence 2) [9C89CD0A], AccurateRip returned [9D7C4165]Track 6 cannot be verified as accurate (confidence 2) [FB597A1D], AccurateRip returned [1029DAD8]Track 7 cannot be verified as accurate (confidence 2) [8D461329], AccurateRip returned [8FF38B6B]Track 8 cannot be verified as accurate (confidence 2) [8A7AB383], AccurateRip returned [7F706712]Track 9 cannot be verified as accurate (confidence 2) [6E40F84C], AccurateRip returned [BA1504DF]Track 10 cannot be verified as accurate (confidence 2) [3597270B], AccurateRip returned [3FBE13B8]Track 11 cannot be verified as accurate (confidence 2) [E7F5A8E6], AccurateRip returned [C06C809C]Track 12 cannot be verified as accurate (confidence 2) [75C9C4A8], AccurateRip returned [CCB5293B]Track 13 cannot be verified as accurate (confidence 2) [894608CD], AccurateRip returned [974F0638]Track 14 cannot be verified as accurate (confidence 2) [279FECA1], AccurateRip returned [698BA308]Track 15 cannot be verified as accurate (confidence 2) [51F9B327], AccurateRip returned [DB4999DB]Track 16 cannot be verified as accurate (confidence 2) [375BE09D], AccurateRip returned [D9504913]Track 17 cannot be verified as accurate (confidence 2) [3DC45612], AccurateRip returned [1BD0292E]
No tracks could be verified as accurateYou may have a different pressing from the one(s) in the database
End of status report

1999 - Ели Мясо Мужики (2000, Manchester Files)

01. Ели мясо мужики (2:40)
02. Лесник (3:13)
03. Валет и дама (3:09)
04. Леший обиделся (2:28)
05. Дурак и молния (1:57)
06. Блуждают тени (2:17)
07. Вячеслав (2:01)
08. Песня мушкетеров (3:29)
09. Мария (3:03)
10. Мотоцикл (2:51)
11. Проказник скоморох (1:50)
12. Два вора и монета (2:45)
13. Шар голубой (1:23)
14. Отец и маски (2:57)
15. Охотник (2:44)
16. Пьеса (0:27)
17. Прыгну со скалы (3:17)
18. Сапоги (2:20)
19. Камнем по голове (2:51)

Лог создания рипа

Exact Audio Copy V1.0 beta 1 from 15. November 2010
EAC extraction logfile from 20. March 2011, 19:19
Король и Шут / Ели Мясо Мужики (2000, Manchester Files)
Used drive : ASUS DRW-24B1LT Adapter: 11 ID: 12
Read mode : SecureUtilize accurate stream : YesDefeat audio cache : YesMake use of C2 pointers : No
Read offset correction : 6Overread into Lead-In and Lead-Out : NoFill up missing offset samples with silence : YesDelete leading and trailing silent blocks : NoNull samples used in CRC calculations : YesUsed interface : Native Win32 interface for Win NT & 2000
Used output format : User Defined EncoderSelected bitrate : 1024 kBit/sQuality : HighAdd ID3 tag : NoCommand line compressor : C:\Program Files (x86)\Exact Audio Copy\Flac\flac.exeAdditional command line options : -8 -V %s
TOC of the extracted CD
Track | Start | Length | Start sector | End sector --------------------------------------------------------- 1 | 0:00.15 | 2:40.18 | 15 | 12032 2 | 2:40.33 | 3:13.05 | 12033 | 26512 3 | 5:53.38 | 3:08.68 | 26513 | 40680 4 | 9:02.31 | 2:27.42 | 40681 | 51747 5 | 11:29.73 | 1:57.33 | 51748 | 60555 6 | 13:27.31 | 2:16.39 | 60556 | 70794 7 | 15:43.70 | 2:00.53 | 70795 | 79847 8 | 17:44.48 | 3:29.11 | 79848 | 95533 9 | 21:13.59 | 3:02.60 | 95534 | 109243 10 | 24:16.44 | 2:50.39 | 109244 | 122032 11 | 27:07.08 | 1:49.68 | 122033 | 130275 12 | 28:57.01 | 2:45.33 | 130276 | 142683 13 | 31:42.34 | 1:22.52 | 142684 | 148885 14 | 33:05.11 | 2:56.58 | 148886 | 162143 15 | 36:01.69 | 2:43.52 | 162144 | 174420 16 | 38:45.46 | 0:26.69 | 174421 | 176439 17 | 39:12.40 | 3:16.60 | 176440 | 191199 18 | 42:29.25 | 2:20.33 | 191200 | 201732 19 | 44:49.58 | 2:51.22 | 201733 | 214579
Range status and errors
Selected range
Filename H:\ПОДГОТОВКА\Король и Шут\1999 - Ели Мясо Мужики (2000, Manchester Files)\Король и Шут - Ели Мясо Мужики (2000, Manchester Files).wav
Peak level 98.8 % Extraction speed 0.4 X Range quality 99.9 % Copy CRC 0535DD75 Copy OK
No errors occurred
AccurateRip summary
Track 1 accurately ripped (confidence 6) [6CA96A9D]Track 2 accurately ripped (confidence 6) [9B67C0FF]Track 3 accurately ripped (confidence 6) [9D917256]Track 4 accurately ripped (confidence 6) [31020610]Track 5 accurately ripped (confidence 6) [5BF335D4]Track 6 accurately ripped (confidence 6) [2BCFDFF8]Track 7 accurately ripped (confidence 6) [5E8C079D]Track 8 accurately ripped (confidence 6) [92E988EE]Track 9 accurately ripped (confidence 6) [007A0605]Track 10 accurately ripped (confidence 6) [CFE8E88E]Track 11 accurately ripped (confidence 6) [7C08CC37]Track 12 accurately ripped (confidence 6) [443D9125]Track 13 accurately ripped (confidence 6) [F349227F]Track 14 accurately ripped (confidence 6) [493103D6]Track 15 accurately ripped (confidence 6) [21A096BD]Track 16 accurately ripped (confidence 6) [725DE969]Track 17 accurately ripped (confidence 6) [1EE13E0B]Track 18 accurately ripped (confidence 6) [3781DBDD]Track 19 accurately ripped (confidence 6) [48EB64A8]
All tracks accurately ripped
End of status report

1999 - Ели Мясо Мужики (2003, Manchester Files)

01. Ели мясо мужики (2:40)
02. Охотник (2:44)
03. Отец и маски (2:57)
04. Валет и дама (3:09)
05. Садовник (2:49)
06. Холодное тело (2:34)
07. Леший обиделся (2:28)
08. Дурак и молния (1:57)
09. Два вора и монета (2:45)
10. Вячеслав (2:01)
11. Песня мушкетёров (3:29)
12. Весёлые тролли (3:02)
13. Мария (3:03)
14. Шар голубой (1:23)
15. Мотоцикл (2:51)
16. Пьеса (0:27)
17. Прыгну со скалы (3:17)
18. Помоги мне! (2:13)
19. Блуждают тени (2:17)
20. Проказник скоморох (1:50)
21. Лесник (3:13)
22. Сапоги (2:20)
23. Камнем по голове (2:51)

Лог создания рипа

Exact Audio Copy V1.0 beta 3 from 29. August 2011
Отчёт EAC об извлечении, выполненном 6. декабря 2011, 22:17
Король и Шут / Ели мясо мужики
Дисковод: Optiarc DVD RW AD-5280S Adapter: 3 ID: 1
Режим чтения : ДостоверностьИспользование точного потока : ДаОтключение кэша аудио : ДаИспользование указателей C2 : Нет
Коррекция смещения при чтении : 48Способность читать области Lead-in и Lead-out : НетЗаполнение пропущенных сэмплов тишиной : ДаУдаление блоков с тишиной в начале и конце : НетПри вычислениях CRC использовались нулевые сэмплы : ДаИнтерфейс : Встроенный Win32-интерфейс для Win NT/2000
Выходной формат : Внутренние WAV-операцииФормат сэмплов : 44.100 Гц; 16 бит; стерео
TOC извлечённого CD
Трек | Старт | Длительность | Начальный сектор | Конечный сектор --------------------------------------------------------------------- 1 | 0:00.00 | 2:40.18 | 0 | 12017 2 | 2:40.18 | 2:43.52 | 12018 | 24294 3 | 5:23.70 | 2:56.58 | 24295 | 37552 4 | 8:20.53 | 3:08.68 | 37553 | 51720 5 | 11:29.46 | 2:48.50 | 51721 | 64370 6 | 14:18.21 | 2:34.35 | 64371 | 75955 7 | 16:52.56 | 2:27.42 | 75956 | 87022 8 | 19:20.23 | 1:57.33 | 87023 | 95830 9 | 21:17.56 | 2:45.33 | 95831 | 108238 10 | 24:03.14 | 2:00.53 | 108239 | 117291 11 | 26:03.67 | 3:29.11 | 117292 | 132977 12 | 29:33.03 | 3:02.03 | 132978 | 146630 13 | 32:35.06 | 3:02.60 | 146631 | 160340 14 | 35:37.66 | 1:22.52 | 160341 | 166542 15 | 37:00.43 | 2:50.39 | 166543 | 179331 16 | 39:51.07 | 0:26.69 | 179332 | 181350 17 | 40:18.01 | 3:16.60 | 181351 | 196110 18 | 43:34.61 | 2:12.67 | 196111 | 206077 19 | 45:47.53 | 2:16.39 | 206078 | 216316 20 | 48:04.17 | 1:49.68 | 216317 | 224559 21 | 49:54.10 | 3:13.05 | 224560 | 239039 22 | 53:07.15 | 2:20.33 | 239040 | 249572 23 | 55:27.48 | 2:51.12 | 249573 | 262409 24 | 60:50.60 | 12:58.17 | 273810 | 332176
Характеристики диапазона извлечения и сообщения об ошибках
Выбранный диапазон
Имя файла C:\Lossless\Eli myaso mugiki.wav
Пиковый уровень 98.8 % Скорость извлечения 8.0 X Качество диапазона 100.0 % CRC копии E58997F3 Копирование... OK
Ошибок не произошло
AccurateRip: сводка
Трек 1 : извлечено точно (доверие 1) [1D4F0036] (AR v1)Трек 2 : извлечено точно (доверие 1) [454D39C8] (AR v1)Трек 3 : извлечено точно (доверие 1) [4DC80046] (AR v1)Трек 4 : извлечено точно (доверие 1) [E86864CC] (AR v1)Трек 5 : извлечено точно (доверие 1) [A49BE80E] (AR v1)Трек 6 : извлечено точно (доверие 1) [3EF5E4AD] (AR v1)Трек 7 : извлечено точно (доверие 1) [39640962] (AR v1)Трек 8 : извлечено точно (доверие 1) [5AEF4663] (AR v1)Трек 9 : извлечено точно (доверие 1) [235F600B] (AR v1)Трек 10 : извлечено точно (доверие 1) [40EA65BB] (AR v1)Трек 11 : извлечено точно (доверие 1) [914D6E49] (AR v1)Трек 12 : извлечено точно (доверие 1) [625C0038] (AR v1)Трек 13 : извлечено точно (доверие 1) [CC19F3E5] (AR v1)Трек 14 : извлечено точно (доверие 1) [C8176D12] (AR v1)Трек 15 : извлечено точно (доверие 1) [FF07C4C1] (AR v1)Трек 16 : извлечено точно (доверие 1) [CA3FF26C] (AR v1)Трек 17 : извлечено точно (доверие 1) [CC34D9C4] (AR v1)Трек 18 : извлечено точно (доверие 1) [6078094D] (AR v1)Трек 19 : извлечено точно (доверие 1) [1C005A08] (AR v1)Трек 20 : извлечено точно (доверие 1) [AB758677] (AR v1)Трек 21 : извлечено точно (доверие 1) [A74F15B9] (AR v1)Трек 22 : извлечено точно (доверие 1) [1D905D18] (AR v1)Трек 23 : извлечено точно (доверие 1) [877EE84F] (AR v1)
Все треки извлечены точно
Конец отчёта
==== Контрольная сумма отчёта 91E8003C8088AE66B49609283886CFCC3DC771CDA66041AEC9AB2D25EB89799C ====

2000 - Герои и Злодеи (2000, Столица Продакшн)

01. Дед на Свадьбе (4:49)
02. Запрет Отца (3:33)
03. Кузнец (3:02)
04. Разговор с Гоблином (2:34)
05. Вор, Граф и Графиня (2:58)
06. Что Видел Малыш (3:29)
07. Невеста Палача (4:24)
08. Мастер Приглашает в Гости (3:17)
09. Бродяга и Старик (4:11)
10. Смерть Халдея (3:42)
11. Помнят с Горечью Древляне (3:59)
12. Про Ивана (2:39)
13. Воспоминания о Былой Любви (2:59)

Лог создания рипа

Exact Audio Copy V0.99 prebeta 5 from 4. May 2009
EAC extraction logfile from 17. April 2011, 6:47
Король и Шут / Герои и Злодеи
Used drive : ATAPI iHAP122 9 Adapter: 1 ID: 0
Read mode : SecureUtilize accurate stream : YesDefeat audio cache : YesMake use of C2 pointers : No
Read offset correction : 6Overread into Lead-In and Lead-Out : NoFill up missing offset samples with silence : YesDelete leading and trailing silent blocks : NoNull samples used in CRC calculations : YesUsed interface : Native Win32 interface for Win NT & 2000
Used output format : User Defined EncoderSelected bitrate : 128 kBit/sQuality : HighAdd ID3 tag : NoCommand line compressor : C:\Program Files\FLAC\flac.exeAdditional command line options : -8 -V -T "artist=%a" -T "title=%t" -T "album=%g" -T "date=%y" -T "tracknumber=%n" -T "genre=%m" -T "comment=EAC 0.99pb5" %s
TOC of the extracted CD
Track | Start | Length | Start sector | End sector --------------------------------------------------------- 1 | 0:00.00 | 4:48.39 | 0 | 21638 2 | 4:48.39 | 3:33.33 | 21639 | 37646 3 | 8:21.72 | 3:01.50 | 37647 | 51271 4 | 11:23.47 | 2:34.10 | 51272 | 62831 5 | 13:57.57 | 2:57.42 | 62832 | 76148 6 | 16:55.24 | 3:29.23 | 76149 | 91846 7 | 20:24.47 | 4:24.36 | 91847 | 111682 8 | 24:49.08 | 3:17.10 | 111683 | 126467 9 | 28:06.18 | 4:10.44 | 126468 | 145261 10 | 32:16.62 | 3:41.67 | 145262 | 161903 11 | 35:58.54 | 3:58.63 | 161904 | 179816 12 | 39:57.42 | 2:39.01 | 179817 | 191742 13 | 42:36.43 | 2:58.38 | 191743 | 205130
Range status and errors
Selected range
Filename E:\Король и Шут - Герои и Злодеи.wav
Peak level 100.0 % Range quality 99.9 % Test CRC DF65563D Copy CRC DF65563D Copy OK
No errors occurred
AccurateRip summary
Track 1 accurately ripped (confidence 1) [6B343242]Track 2 accurately ripped (confidence 1) [8031FFEB]Track 3 accurately ripped (confidence 1) [7F24CA4B]Track 4 accurately ripped (confidence 1) [75AD168B]Track 5 accurately ripped (confidence 1) [DD049B6D]Track 6 accurately ripped (confidence 1) [B284CAF0]Track 7 accurately ripped (confidence 1) [32371707]Track 8 accurately ripped (confidence 1) [5C6582CF]Track 9 accurately ripped (confidence 1) [FC61A3E6]Track 10 accurately ripped (confidence 1) [FAA3BDC6]Track 11 accurately ripped (confidence 1) [34B2518F]Track 12 accurately ripped (confidence 1) [C650E82F]Track 13 accurately ripped (confidence 1) [03175D57]
All tracks accurately ripped
End of status report

2000 - Герои и Злодеи (2001, Столица Продакшн)

01. Дед На Свадьбе (4:47)
02. Запрет Отца (3:31)
03. Кузнец (3:00)
04. Разговор С Гоблином (2:32)
05. Вор, Граф И Графиня (2:56)
06. Что Видел Малыш (3:27)
07. Невеста Плача (4:23)
08. Мастер Приглашает В Гости (3:15)
09. Бродяга И Старик (4:09)
10. Смерть Халдея (3:40)
11. Помнят С Горечью Древляне (3:57)
12. Про Ивана (2:37)
13. Воспоминание О Былой Любви (2:59)
14. Садовник (live) (3:04)
15. Паника В Селе (live) (3:26)

Лог создания рипа

EAC extraction logfile from 9. April 2007, 11:48 for CDКороль И Шут / Герои И Злодеи
Used drive : PIONEER DVD-RW DVR-111L Adapter: 0 ID: 0Read mode : Secure with NO C2, accurate stream, disable cacheRead offset correction : 48Overread into Lead-In and Lead-Out : No
Used output format : Internal WAV Routines 44.100 Hz; 16 Bit; Stereo
Other options : Fill up missing offset samples with silence : Yes Delete leading and trailing silent blocks : No Installed external ASPI interface
Range status and errorsSelected range Filename D:\Korol i Shut\Герои И Злодеи\CDImage.wav
Peak level 100.0 % Range quality 100.0 % CRC C70BE460 Copy OK
No errors occured
End of status report

2000 - Герои и Злодеи (2002, Центр Музыкального Сервиса)

01. Дед на свадьбе (4:47)
02. Запрет отца (3:30)
03. Кузнец (2:58)
04. Разговор с гоблином (2:30)
05. Вор, граф и графиня (2:53)
06. Что видел малыш (3:26)
07. Невеста палача (4:21)
08. Мастер приглашает в гости (3:13)
09. Бродяга и старик (4:06)
10. Смерть халдея (3:37)
11. Помнят с горечью древляне (3:54)
12. Про Ивана (2:34)
13. Воспоминания о былой любви (3:00)
14. Разбойники (live) (4:10)
15. Паника в селе (live) (3:24)

Лог создания рипа

Exact Audio Copy V1.0 beta 1 from 15. November 2010
EAC extraction logfile from 20. March 2011, 19:06
Король и Шут / Герои и Злодеи (2002, Центр Музыкального Сервиса)
Used drive : ASUS DRW-24B1LT Adapter: 11 ID: 12
Read mode : SecureUtilize accurate stream : YesDefeat audio cache : YesMake use of C2 pointers : No
Read offset correction : 6Overread into Lead-In and Lead-Out : NoFill up missing offset samples with silence : YesDelete leading and trailing silent blocks : NoNull samples used in CRC calculations : YesUsed interface : Native Win32 interface for Win NT & 2000
Used output format : User Defined EncoderSelected bitrate : 1024 kBit/sQuality : HighAdd ID3 tag : NoCommand line compressor : C:\Program Files (x86)\Exact Audio Copy\Flac\flac.exeAdditional command line options : -8 -V %s
TOC of the extracted CD
Track | Start | Length | Start sector | End sector --------------------------------------------------------- 1 | 0:00.00 | 4:46.74 | 0 | 21523 2 | 4:46.74 | 3:30.35 | 21524 | 37308 3 | 8:17.34 | 2:57.71 | 37309 | 50654 4 | 11:15.30 | 2:29.44 | 50655 | 61873 5 | 13:44.74 | 2:52.45 | 61874 | 74818 6 | 16:37.44 | 3:26.29 | 74819 | 90297 7 | 20:03.73 | 4:20.40 | 90298 | 109837 8 | 24:24.38 | 3:13.27 | 109838 | 124339 9 | 27:37.65 | 4:05.47 | 124340 | 142761 10 | 31:43.37 | 3:36.70 | 142762 | 159031 11 | 35:20.32 | 3:53.66 | 159032 | 176572 12 | 39:14.23 | 2:34.29 | 176573 | 188151 13 | 41:48.52 | 2:59.41 | 188152 | 201617 14 | 44:48.18 | 4:09.52 | 201618 | 220344 15 | 48:57.70 | 3:24.04 | 220345 | 235648
Range status and errors
Selected range
Filename H:\ПОДГОТОВКА\Король и Шут\2000 - Герои и Злодеи (2002, Центр Музыкального Сервиса)\Король и Шут - Герои и Злодеи (2002, Центр Музыкального Сервиса).wav
Peak level 100.0 % Extraction speed 0.4 X Range quality 99.9 % Copy CRC 9E0E3430 Copy OK
No errors occurred
AccurateRip summary
Track 1 accurately ripped (confidence 2) [37AD6900]Track 2 accurately ripped (confidence 2) [12525E79]Track 3 accurately ripped (confidence 2) [C272AA48]Track 4 accurately ripped (confidence 2) [364F2965]Track 5 accurately ripped (confidence 2) [B1928572]Track 6 accurately ripped (confidence 2) [717EC78E]Track 7 accurately ripped (confidence 2) [77429208]Track 8 accurately ripped (confidence 2) [0C5D3A30]Track 9 accurately ripped (confidence 2) [8FF6D115]Track 10 accurately ripped (confidence 2) [7CE52937]Track 11 accurately ripped (confidence 2) [913CFE1A]Track 12 accurately ripped (confidence 2) [DCC60942]Track 13 accurately ripped (confidence 2) [E7562A44]Track 14 accurately ripped (confidence 2) [187D4E21]Track 15 accurately ripped (confidence 2) [84DBACCA]
All tracks accurately ripped
End of status report

2000 - Собрание (2001, Мистерия Звука)

01. Камнем по голове (2:35)
02. Два Вора и монета (2:13)
03. Сапоги мертвеца (2:27)
04. Садовник (3:42)
05. Два друга и разбойники (2:12)
06. Дурак и молния (1:53)
07. Охотник (2:33)
08. Песня мушкетеров (3:47)
09. Тяни (2:54)
10. Мотоцикл (2:51)
11. Смельчак и ветер (2:57)
12. Кукла колдуна (3:23)
13. От женщин кругом голова (1:28)
14. Любовь и пропеллер (2:36)
15. Наблюдатель (4:43)
16. Валет и Дама (3:09)
17. Ведьма и Осел (2:56)
18. Отец и маски (3:01)
19. Лесник (3:08)
20. Забытые ботинки (2:47)
21. Король и шут (2:38)
22. Прыгну со скалы (3:13)
23. Собрание (4:04)
24. Ели мясо мужики (2:14)
25. Рыбак (1:41)
26. Молотов (4:25)

Лог создания рипа

Exact Audio Copy V1.0 beta 1 from 15. November 2010
EAC extraction logfile from 20. March 2011, 21:33
Король и Шут / Собрание (2001, Мистерия Звука)
Used drive : ASUS DRW-24B1LT Adapter: 11 ID: 12
Read mode : SecureUtilize accurate stream : YesDefeat audio cache : YesMake use of C2 pointers : No
Read offset correction : 6Overread into Lead-In and Lead-Out : NoFill up missing offset samples with silence : YesDelete leading and trailing silent blocks : NoNull samples used in CRC calculations : YesUsed interface : Native Win32 interface for Win NT & 2000
Used output format : User Defined EncoderSelected bitrate : 1024 kBit/sQuality : HighAdd ID3 tag : NoCommand line compressor : C:\Program Files (x86)\Exact Audio Copy\Flac\flac.exeAdditional command line options : -8 -V %s
TOC of the extracted CD
Track | Start | Length | Start sector | End sector --------------------------------------------------------- 1 | 0:00.00 | 2:35.36 | 0 | 11660 2 | 2:35.36 | 2:13.12 | 11661 | 21647 3 | 4:48.48 | 2:26.45 | 21648 | 32642 4 | 7:15.18 | 3:42.03 | 32643 | 49295 5 | 10:57.21 | 2:11.38 | 49296 | 59158 6 | 13:08.59 | 1:52.74 | 59159 | 67632 7 | 15:01.58 | 2:32.46 | 67633 | 79078 8 | 17:34.29 | 3:47.25 | 79079 | 96128 9 | 21:21.54 | 2:53.66 | 96129 | 109169 10 | 24:15.45 | 2:51.01 | 109170 | 121995 11 | 27:06.46 | 2:57.17 | 121996 | 135287 12 | 30:03.63 | 3:22.41 | 135288 | 150478 13 | 33:26.29 | 1:28.36 | 150479 | 157114 14 | 34:54.65 | 2:35.72 | 157115 | 168811 15 | 37:30.62 | 4:42.44 | 168812 | 190005 16 | 42:13.31 | 3:09.31 | 190006 | 204211 17 | 45:22.62 | 2:56.17 | 204212 | 217428 18 | 48:19.04 | 3:00.38 | 217429 | 230966 19 | 51:19.42 | 3:08.32 | 230967 | 245098 20 | 54:27.74 | 2:47.23 | 245099 | 257646 21 | 57:15.22 | 2:38.22 | 257647 | 269518 22 | 59:53.44 | 3:13.24 | 269519 | 284017 23 | 63:06.68 | 4:03.67 | 284018 | 302309 24 | 67:10.60 | 2:14.33 | 302310 | 312392 25 | 69:25.18 | 1:41.26 | 312393 | 319993 26 | 71:06.44 | 4:25.07 | 319994 | 339875 27 | 78:03.51 | 0:10.21 | 351276 | 352046
Range status and errors
Selected range
Filename H:\ПОДГОТОВКА\Король и Шут\2000 - Собрание (2001, Мистерия Звука)\Король и Шут - Собрание (2001, Мистерия Звука).wav
Peak level 98.1 % Extraction speed 0.0 X Range quality 99.9 % Copy CRC BFE2B08E Copy OK
No errors occurred
AccurateRip summary
Track 1 accurately ripped (confidence 2) [C644F888]Track 2 accurately ripped (confidence 2) [8532AA05]Track 3 accurately ripped (confidence 2) [D5471999]Track 4 accurately ripped (confidence 2) [6F45B895]Track 5 accurately ripped (confidence 2) [7CD9734F]Track 6 accurately ripped (confidence 2) [99211AB9]Track 7 accurately ripped (confidence 2) [2D2B4240]Track 8 accurately ripped (confidence 2) [9B8CFCDA]Track 9 accurately ripped (confidence 2) [D61A8C86]Track 10 accurately ripped (confidence 2) [9A4ECB19]Track 11 accurately ripped (confidence 2) [9D5112E4]Track 12 accurately ripped (confidence 2) [C7554493]Track 13 accurately ripped (confidence 2) [0A145DCE]Track 14 accurately ripped (confidence 2) [BDCDD4C5]Track 15 accurately ripped (confidence 2) [B11EB248]Track 16 accurately ripped (confidence 2) [6C3432A7]Track 17 accurately ripped (confidence 2) [82F1CD15]Track 18 accurately ripped (confidence 2) [0D727F3F]Track 19 accurately ripped (confidence 2) [9F97FB54]Track 20 accurately ripped (confidence 2) [759D8E1D]Track 21 accurately ripped (confidence 2) [D7ED2049]Track 22 accurately ripped (confidence 2) [45DFD9EA]Track 23 accurately ripped (confidence 2) [051F6FA6]Track 24 accurately ripped (confidence 2) [2A9BB278]Track 25 accurately ripped (confidence 2) [482BBFAC]Track 26 accurately ripped (confidence 2) [EDC5EF6A]
All tracks accurately ripped
End of status report

2001 - Как в старой сказке (2001, Мистерия Звука)

01. Гимн шута (5:00)
02. Проклятый старый дом (4:17)
03. Тайна хозяйки старинных часов (3:31)
04. Кузьма и барин (3:08)
05. Пират (3:55)
06. Скотный двор (2:22)
07. Возвращение колдуна (3:15)
08. Зловещий кузен (3:11)
09. Ответ (3:47)
10. Рогатый (3:15)
11. Двухголовый отпрыск (1:52)
12. Два монаха в одну ночь (2:01)
13. Кто это все придумал (2:57)
14. Пивной череп (3:00)
15. Парень и леший (4:10)
16. Похороны панка (2:19)
17. Воспоминания о былой любви (4:55)

Лог создания рипа

Exact Audio Copy V1.0 beta 1 from 15. November 2010
EAC extraction logfile from 20. March 2011, 21:55
Король и Шут / Как в старой сказке (2001, Мистерия Звука)
Used drive : ASUS DRW-24B1LT Adapter: 11 ID: 12
Read mode : SecureUtilize accurate stream : YesDefeat audio cache : YesMake use of C2 pointers : No
Read offset correction : 6Overread into Lead-In and Lead-Out : NoFill up missing offset samples with silence : YesDelete leading and trailing silent blocks : NoNull samples used in CRC calculations : YesUsed interface : Native Win32 interface for Win NT & 2000
Used output format : User Defined EncoderSelected bitrate : 1024 kBit/sQuality : HighAdd ID3 tag : NoCommand line compressor : C:\Program Files (x86)\Exact Audio Copy\Flac\flac.exeAdditional command line options : -8 -V %s
TOC of the extracted CD
Track | Start | Length | Start sector | End sector --------------------------------------------------------- 1 | 0:00.00 | 5:00.35 | 0 | 22534 2 | 5:00.35 | 4:17.01 | 22535 | 41810 3 | 9:17.36 | 3:30.71 | 41811 | 57631 4 | 12:48.32 | 3:07.73 | 57632 | 71729 5 | 15:56.30 | 3:55.07 | 71730 | 89361 6 | 19:51.37 | 2:21.59 | 89362 | 99995 7 | 22:13.21 | 3:15.21 | 99996 | 114641 8 | 25:28.42 | 3:11.35 | 114642 | 129001 9 | 28:40.02 | 3:46.44 | 129002 | 145995 10 | 32:26.46 | 3:15.37 | 145996 | 160657 11 | 35:42.08 | 1:52.23 | 160658 | 169080 12 | 37:34.31 | 2:00.47 | 169081 | 178127 13 | 39:35.03 | 2:56.68 | 178128 | 191395 14 | 42:31.71 | 2:59.65 | 191396 | 204885 15 | 45:31.61 | 4:09.71 | 204886 | 223631 16 | 49:41.57 | 2:19.08 | 223632 | 234064 17 | 52:00.65 | 4:54.71 | 234065 | 256185
Range status and errors
Selected range
Filename H:\ПОДГОТОВКА\Король и Шут\2001 - Как в старой сказке (2001, Мистерия Звука)\Король и Шут - Как в старой сказке (2001, Мистерия Звука).wav
Peak level 97.0 % Extraction speed 0.5 X Range quality 99.9 % Copy CRC C1DB62BC Copy OK
No errors occurred
AccurateRip summary
Track 1 accurately ripped (confidence 7) [F1C99346]Track 2 accurately ripped (confidence 7) [228134CE]Track 3 accurately ripped (confidence 7) [B1DCCDF3]Track 4 accurately ripped (confidence 7) [09633B4A]Track 5 accurately ripped (confidence 7) [A896DF43]Track 6 accurately ripped (confidence 7) [B213AA21]Track 7 accurately ripped (confidence 7) [4FAD2379]Track 8 accurately ripped (confidence 7) [24BE3788]Track 9 accurately ripped (confidence 7) [190B05FB]Track 10 accurately ripped (confidence 7) [A35B53B5]Track 11 accurately ripped (confidence 7) [CE0E0417]Track 12 accurately ripped (confidence 7) [3169ED7A]Track 13 accurately ripped (confidence 7) [6C6EC218]Track 14 accurately ripped (confidence 7) [2A1CA4E9]Track 15 accurately ripped (confidence 6) [49779EEC]Track 16 accurately ripped (confidence 7) [6E25A7C2]Track 17 accurately ripped (confidence 5) [D733B18B]
All tracks accurately ripped
End of status report

2002 - Жаль, нет ружья! (2002, Мистерия Звука)

01. Волосокрад (4:27)
02. Мертвый Анархист (4:08)
03. Смешной Совет (4:06)
04. Некромант (2:44)
05. Защитник Свиней (2:45)
06. Генрих и Смерть (2:25)
07. Жаль, нет Ружья! (3:40)
08. Представляю Я (2:10)
09. Мой Характер (3:51)
10. Песенка пьяного деда (2:05)
11. Водяной (2:10)
12. Вдова и Горбун (3:11)
13. Вино хоббитов (4:33)
14. Разборки из-за Баб (3:44)
15. Утопленник (4:04)
16. Медведь (3:31)
17. Пьянка (2:13)

Лог создания рипа

Exact Audio Copy V1.0 beta 1 from 15. November 2010
EAC extraction logfile from 21. March 2011, 18:51
Король и Шут / Жаль, нет ружья! (2002, Мистерия Звука)
Used drive : ASUS DRW-24B1LT Adapter: 11 ID: 12
Read mode : SecureUtilize accurate stream : YesDefeat audio cache : YesMake use of C2 pointers : No
Read offset correction : 6Overread into Lead-In and Lead-Out : NoFill up missing offset samples with silence : YesDelete leading and trailing silent blocks : NoNull samples used in CRC calculations : YesUsed interface : Native Win32 interface for Win NT & 2000
Used output format : User Defined EncoderSelected bitrate : 1024 kBit/sQuality : HighAdd ID3 tag : NoCommand line compressor : C:\Program Files (x86)\Exact Audio Copy\Flac\flac.exeAdditional command line options : -8 -V %s
TOC of the extracted CD
Track | Start | Length | Start sector | End sector --------------------------------------------------------- 1 | 0:00.00 | 4:27.26 | 0 | 20050 2 | 4:27.26 | 4:07.53 | 20051 | 38628 3 | 8:35.04 | 4:05.62 | 38629 | 57065 4 | 12:40.66 | 2:43.62 | 57066 | 69352 5 | 15:24.53 | 2:45.14 | 69353 | 81741 6 | 18:09.67 | 2:24.74 | 81742 | 92615 7 | 20:34.66 | 3:40.32 | 92616 | 109147 8 | 24:15.23 | 2:10.29 | 109148 | 118926 9 | 26:25.52 | 3:51.00 | 118927 | 136251 10 | 30:16.52 | 2:05.04 | 136252 | 145630 11 | 32:21.56 | 2:10.04 | 145631 | 155384 12 | 34:31.60 | 3:11.17 | 155385 | 169726 13 | 37:43.02 | 4:32.71 | 169727 | 190197 14 | 42:15.73 | 3:43.68 | 190198 | 206990 15 | 45:59.66 | 4:03.58 | 206991 | 225273 16 | 50:03.49 | 3:31.08 | 225274 | 241106 17 | 53:34.57 | 2:12.63 | 241107 | 251069
Range status and errors
Selected range
Filename H:\ПОДГОТОВКА\Король и Шут\2002 - Жаль, нет ружья! (2002, Мистерия Звука)\Король и Шут - Жаль, нет ружья! (2002, Мистерия Звука).wav
Peak level 100.0 % Extraction speed 0.3 X Range quality 100.0 % Copy CRC D785DCF6 Copy OK
No errors occurred
AccurateRip summary
Track 1 accurately ripped (confidence 4) [360BAF45]Track 2 accurately ripped (confidence 4) [AD0E1AB3]Track 3 accurately ripped (confidence 4) [1C289206]Track 4 accurately ripped (confidence 4) [299E3909]Track 5 accurately ripped (confidence 4) [C85C1C43]Track 6 accurately ripped (confidence 4) [744C0C7D]Track 7 accurately ripped (confidence 4) [15A7B0F4]Track 8 accurately ripped (confidence 4) [8C53E8CD]Track 9 accurately ripped (confidence 4) [A2D6F138]Track 10 accurately ripped (confidence 4) [F1FFCB66]Track 11 accurately ripped (confidence 4) [841E84B8]Track 12 accurately ripped (confidence 4) [56756DB1]Track 13 accurately ripped (confidence 4) [227CD0A8]Track 14 accurately ripped (confidence 4) [E65D5CEA]Track 15 accurately ripped (confidence 4) [03B82831]Track 16 accurately ripped (confidence 4) [D58EA95C]Track 17 accurately ripped (confidence 4) [42D6B69E]
All tracks accurately ripped
End of status report

2003 - Мёртвый Анархист (2 CD) [live] (2003, Мистерия Звука)

CD 1
01. Intro (2:56)
02. Лесник (3:48)
03. Волосокрад (2:48)
04. Ели Мясо Мужики (2:16)
05. Мёртвый Анархист (4:06)
06. Защитник Свиней (2:49)
07. Проклятый Старый Дом (4:30)
08. Он Не Знает, Что Такое Жить! (2:20)
09. Песенка Пьяного Деда (2:18)
10. Смерть Халдея (3:31)
11. Некромант (3:01)
12. Кузьма и Барин (3:11)
13. Представляю Я (2:29)
14. Мария (3:26)
15. Пьянка (2:33)
16. От Женщин Кругом Голова (1:37)
17. Разборки Из-за Баб (2:50)
CD 2
01. Cадовник (3:12)
02. Запрет Отца (4:10)
03. Кто Это Всё Придумал (3:08)
04. Мастер Приглашает в Гости (3:19)
05. Злодей и Шапка (2:20)
06. Парень и Леший (4:12)
07. Проказник Скоморох (1:38)
08. Паника в Селе (3:27)
09. Прыгну Со Скалы (4:15)
10. Скотный Двор (2:21)
11. Шар Голубой (1:53)
12. Гимн Шута (4:22)
13. Похороны Панка (2:34)
14. Воспоминание о Былой Любви (4:50)
15. Камнем По Голове (4:30)
16. Outro (2:12)

Лог создания рипа, CD 1

Exact Audio Copy V1.0 beta 1 from 15. November 2010
EAC extraction logfile from 21. March 2011, 20:12
Король и Шут / Мёртвый Анархист (CD 1)
Used drive : ASUS DRW-24B1LT Adapter: 11 ID: 12
Read mode : SecureUtilize accurate stream : YesDefeat audio cache : YesMake use of C2 pointers : No
Read offset correction : 6Overread into Lead-In and Lead-Out : NoFill up missing offset samples with silence : YesDelete leading and trailing silent blocks : NoNull samples used in CRC calculations : YesUsed interface : Native Win32 interface for Win NT & 2000
Used output format : User Defined EncoderSelected bitrate : 1024 kBit/sQuality : HighAdd ID3 tag : NoCommand line compressor : C:\Program Files (x86)\Exact Audio Copy\Flac\flac.exeAdditional command line options : -8 -V %s
TOC of the extracted CD
Track | Start | Length | Start sector | End sector --------------------------------------------------------- 1 | 0:00.00 | 2:56.11 | 0 | 13210 2 | 2:56.11 | 3:47.56 | 13211 | 30291 3 | 6:43.67 | 2:48.12 | 30292 | 42903 4 | 9:32.04 | 2:15.47 | 42904 | 53075 5 | 11:47.51 | 4:05.64 | 53076 | 71514 6 | 15:53.40 | 2:49.34 | 71515 | 84223 7 | 18:42.74 | 4:29.59 | 84224 | 104457 8 | 23:12.58 | 2:19.74 | 104458 | 114956 9 | 25:32.57 | 2:18.00 | 114957 | 125306 10 | 27:50.57 | 3:30.42 | 125307 | 141098 11 | 31:21.24 | 3:01.25 | 141099 | 154698 12 | 34:22.49 | 3:10.61 | 154699 | 169009 13 | 37:33.35 | 2:29.32 | 169010 | 180216 14 | 40:02.67 | 3:26.34 | 180217 | 195700 15 | 43:29.26 | 2:32.59 | 195701 | 207159 16 | 46:02.10 | 1:36.38 | 207160 | 214397 17 | 47:38.48 | 2:49.51 | 214398 | 227123
Range status and errors
Selected range
Filename H:\ПОДГОТОВКА\Король и Шут\2003 - Мёртвый Анархист (2 CD) [live] (2003, Мистерия Звука)\Король и Шут - Мёртвый Анархист (CD 1).wav
Peak level 98.0 % Extraction speed 0.4 X Range quality 100.0 % Copy CRC 16120613 Copy OK
No errors occurred
AccurateRip summary
Track 1 not present in databaseTrack 2 not present in databaseTrack 3 not present in databaseTrack 4 not present in databaseTrack 5 not present in databaseTrack 6 not present in databaseTrack 7 not present in databaseTrack 8 not present in databaseTrack 9 not present in databaseTrack 10 not present in databaseTrack 11 not present in databaseTrack 12 not present in databaseTrack 13 not present in databaseTrack 14 not present in databaseTrack 15 not present in databaseTrack 16 not present in databaseTrack 17 not present in database
None of the tracks are present in the AccurateRip database
End of status report

Лог создания рипа, CD 2

Exact Audio Copy V1.0 beta 1 from 15. November 2010
EAC extraction logfile from 21. March 2011, 20:32
Король и Шут / Мёртвый Анархист (CD 2)
Used drive : ASUS DRW-24B1LT Adapter: 11 ID: 12
Read mode : SecureUtilize accurate stream : YesDefeat audio cache : YesMake use of C2 pointers : No
Read offset correction : 6Overread into Lead-In and Lead-Out : NoFill up missing offset samples with silence : YesDelete leading and trailing silent blocks : NoNull samples used in CRC calculations : YesUsed interface : Native Win32 interface for Win NT & 2000
Used output format : User Defined EncoderSelected bitrate : 1024 kBit/sQuality : HighAdd ID3 tag : NoCommand line compressor : C:\Program Files (x86)\Exact Audio Copy\Flac\flac.exeAdditional command line options : -8 -V %s
TOC of the extracted CD
Track | Start | Length | Start sector | End sector --------------------------------------------------------- 1 | 0:00.00 | 3:12.01 | 0 | 14400 2 | 3:12.01 | 4:09.40 | 14401 | 33115 3 | 7:21.41 | 3:07.49 | 33116 | 47189 4 | 10:29.15 | 3:19.13 | 47190 | 62127 5 | 13:48.28 | 2:19.62 | 62128 | 72614 6 | 16:08.15 | 4:11.72 | 72615 | 91511 7 | 20:20.12 | 1:38.14 | 91512 | 98875 8 | 21:58.26 | 3:26.56 | 98876 | 114381 9 | 25:25.07 | 4:14.67 | 114382 | 133498 10 | 29:39.74 | 2:20.52 | 133499 | 144050 11 | 32:00.51 | 1:52.53 | 144051 | 152503 12 | 33:53.29 | 4:22.37 | 152504 | 172190 13 | 38:15.66 | 2:33.71 | 172191 | 183736 14 | 40:49.62 | 4:50.25 | 183737 | 205511 15 | 45:40.12 | 4:30.15 | 205512 | 225776 16 | 50:10.27 | 2:12.10 | 225777 | 235686
Range status and errors
Selected range
Filename H:\ПОДГОТОВКА\Король и Шут\2003 - Мёртвый Анархист (2 CD) [live] (2003, Мистерия Звука)\Король и Шут - Мёртвый Анархист (CD 2).wav
Peak level 98.0 % Extraction speed 0.1 X Range quality 100.0 % Copy CRC 84D5B349 Copy OK
No errors occurred
AccurateRip summary
Track 1 not present in databaseTrack 2 not present in databaseTrack 3 not present in databaseTrack 4 not present in databaseTrack 5 not present in databaseTrack 6 not present in databaseTrack 7 not present in databaseTrack 8 not present in databaseTrack 9 not present in databaseTrack 10 not present in databaseTrack 11 not present in databaseTrack 12 not present in databaseTrack 13 not present in databaseTrack 14 not present in databaseTrack 15 not present in databaseTrack 16 not present in database
None of the tracks are present in the AccurateRip database
End of status report

2004 - Бунт на корабле (2004, Мистерия Звука)

01. Хардкор по-русски (2:53)
02. Волшебный глаз старика Алонса (1:37)
03. Исповедь вампира (3:35)
04. Месть Гарри (3:08)
05. Северный флот (2:11)
06. Идол (3:00)
07. Бунт на корабле! (1:52)
08. Хороший пират - Мертвый пират (4:13)
09. Рыцарь (2:46)
10. Звонок (1:59)
11. Инквизитор (3:47)
12. Задира и солдат (3:39)
13. Раненый воин (1:42)
14. Муха - маленькая птичка (0:06)
15. Хозяин леса (3:08)

Лог создания рипа

Exact Audio Copy V1.0 beta 1 from 15. November 2010
EAC extraction logfile from 21. March 2011, 18:59
Король и Шут / Бунт на корабле (2004, Мистерия Звука)
Used drive : ASUS DRW-24B1LT Adapter: 11 ID: 12
Read mode : SecureUtilize accurate stream : YesDefeat audio cache : YesMake use of C2 pointers : No
Read offset correction : 6Overread into Lead-In and Lead-Out : NoFill up missing offset samples with silence : YesDelete leading and trailing silent blocks : NoNull samples used in CRC calculations : YesUsed interface : Native Win32 interface for Win NT & 2000
Used output format : User Defined EncoderSelected bitrate : 1024 kBit/sQuality : HighAdd ID3 tag : NoCommand line compressor : C:\Program Files (x86)\Exact Audio Copy\Flac\flac.exeAdditional command line options : -8 -V %s
TOC of the extracted CD
Track | Start | Length | Start sector | End sector --------------------------------------------------------- 1 | 0:00.00 | 2:52.65 | 0 | 12964 2 | 2:52.65 | 1:37.28 | 12965 | 20267 3 | 4:30.18 | 3:34.48 | 20268 | 36365 4 | 8:04.66 | 3:07.69 | 36366 | 50459 5 | 11:12.60 | 2:10.58 | 50460 | 60267 6 | 13:23.43 | 3:00.02 | 60268 | 73769 7 | 16:23.45 | 1:52.20 | 73770 | 82189 8 | 18:15.65 | 4:12.72 | 82190 | 101161 9 | 22:28.62 | 2:45.43 | 101162 | 113579 10 | 25:14.30 | 1:59.32 | 113580 | 122536 11 | 27:13.62 | 3:46.71 | 122537 | 139557 12 | 31:00.58 | 3:38.68 | 139558 | 155975 13 | 34:39.51 | 1:42.20 | 155976 | 163645 14 | 36:21.71 | 0:05.52 | 163646 | 164072 15 | 36:27.48 | 3:08.11 | 164073 | 178183 16 | 42:07.59 | 3:39.57 | 189584 | 206065
Range status and errors
Selected range
Filename H:\ПОДГОТОВКА\Король и Шут\2004 - Бунт на корабле (2004, Мистерия Звука)\Король и Шут - Бунт на корабле (2004, Мистерия Звука).wav
Peak level 98.1 % Extraction speed 0.6 X Range quality 100.0 % Copy CRC 88D76CCA Copy OK
No errors occurred
AccurateRip summary
Track 1 accurately ripped (confidence 7) [ACF0FBD4]Track 2 accurately ripped (confidence 9) [2E275425]Track 3 accurately ripped (confidence 9) [ADBD58A8]Track 4 accurately ripped (confidence 9) [1222B6D7]Track 5 accurately ripped (confidence 9) [86942844]Track 6 accurately ripped (confidence 10) [7C3D55B8]Track 7 accurately ripped (confidence 10) [9CB8DB58]Track 8 accurately ripped (confidence 10) [B4FE417F]Track 9 accurately ripped (confidence 8) [BC60E6DF]Track 10 accurately ripped (confidence 9) [63C810F6]Track 11 accurately ripped (confidence 9) [A0A7035B]Track 12 accurately ripped (confidence 9) [9A313119]Track 13 accurately ripped (confidence 9) [CDC9C38E]Track 14 not present in databaseTrack 15 accurately ripped (confidence 9) [D40E0429]
14 track(s) accurately ripped 1 track(s) not present in the AccurateRip database
Some tracks could not be verified as accurate
End of status report

2006 - Продавец Кошмаров (2006, Никитин)

01. Марионетки (3:36)
02. Маска (4:44)
03. Ром (2:41)
04. Гробовщик (3:55)
05. Дочка вурдалака (4:08)
06. Свой среди чужих (4:09)
07. Отражение (5:33)
08. Та, что смотрит из пруда (3:11)
09. В гостях у соседа (3:47)
10. Хозяин таверны (2:58)
11. Писатель Гудвин (3:05)
12. Джокер (3:16)
13. Пляски на могиле (3:32)
14. Матерый волк (2:15)
15. Продавец кошмаров (3:36)
16. Город мертвецов (+bonus) (6:34)

Лог создания рипа

Exact Audio Copy V0.99 prebeta 3 from 28. July 2007
Отчёт EAC об извлечении, выполненном 6. ноября 2007, 22:15
Король и Шут / Продавец кошмаров
Дисковод: PLEXTOR CD-R PX-W5224A Adapter: 0 ID: 1
Режим чтения : ДостоверностьИспользование точного потока : ДаОтключение кэша аудио : ДаИспользование указателей C2 : Нет
Коррекция смещения при чтении : 30Способность читать области Lead-in и Lead-out : НетЗаполнение пропущенных сэмплов тишиной : ДаУдаление блоков с тишиной в начале и конце : НетПри вычислениях CRC использовались нулевые сэмплы : ДаИнтерфейс : Установленный внешний ASPI-интерфейс
Выходной формат : Внутренние WAV-операцииФормат сэмплов : 44.100 Гц; 16 бит; стерео
TOC извлечённого CD
Трек | Старт | Длительность | Начальный сектор | Конечный сектор --------------------------------------------------------------------- 1 | 0:00.00 | 3:36.00 | 0 | 16199 2 | 3:36.00 | 4:44.00 | 16200 | 37499 3 | 8:20.00 | 2:41.09 | 37500 | 49583 4 | 11:01.09 | 3:55.08 | 49584 | 67216 5 | 14:56.17 | 4:08.29 | 67217 | 85845 6 | 19:04.46 | 4:09.34 | 85846 | 104554 7 | 23:14.05 | 5:32.58 | 104555 | 129512 8 | 28:46.63 | 3:11.11 | 129513 | 143848 9 | 31:57.74 | 3:47.11 | 143849 | 160884 10 | 35:45.10 | 2:58.05 | 160885 | 174239 11 | 38:43.15 | 3:04.61 | 174240 | 188100 12 | 41:48.01 | 3:16.11 | 188101 | 202811 13 | 45:04.12 | 3:31.59 | 202812 | 218695 14 | 48:35.71 | 2:14.38 | 218696 | 228783 15 | 50:50.34 | 3:35.73 | 228784 | 244981 16 | 54:26.32 | 6:33.44 | 244982 | 274500
Характеристики диапазона извлечения и сообщения об ошибках
Выбранный диапазон
Имя файла E:\Music\Король и шут\Lossless Discography\Король и Шут - Продавец кошмаров.wav
Пиковый уровень 100.0 % Качество диапазона 99.9 % CRC копии 0511AAEA Копирование... OK
Ошибок не произошло
AccurateRip: сводка
Трек 1 нет в базе данныхТрек 2 нет в базе данныхТрек 3 нет в базе данныхТрек 4 нет в базе данныхТрек 5 нет в базе данныхТрек 6 нет в базе данныхТрек 7 нет в базе данныхТрек 8 нет в базе данныхТрек 9 нет в базе данныхТрек 10 нет в базе данныхТрек 11 нет в базе данныхТрек 12 нет в базе данныхТрек 13 нет в базе данныхТрек 14 нет в базе данныхТрек 15 нет в базе данныхТрек 16 нет в базе данных
Ни одного трека нет в базе AccurateRip
Конец отчёта

2007 - Страшные Скази (2007, Никитин)

01. Внезапная голова (2:26)
02. Сказка о Мертвеце (3:58)
03. Королева-Ведьма (4:38)
04. В доме суета (2:29)
05. Скупой (3:45)
06. Солдат и Колдун (6:39)
07. Гробовщик (3:53)
08. В Доме Смерть (2:17)
09. Солдат и Чёрт (2:01)
10. В Гостях у Соседа (3:47)
11. Кобылья Голова (3:42)
12. Мёртвый Жених (2:56)
13. Верная Жена (2:37)
14. Чёрт и Мужик (1:04)
15. Три Фельдшера (7:22)
16. Любовь и Пропеллер (2:54)
17. Сапоги Колдуна (3:54)
18. Рассказ о Ведьме (2:45)
19. Садовник (3:44)
20. Скрипач в Аду (5:28)
21. Проказник Скоморох (1:49)

Лог создания рипа

Exact Audio Copy V1.0 beta 1 from 15. November 2010
EAC extraction logfile from 21. March 2011, 19:16
Король и Шут / Страшные Скази (2007, Никитин)
Used drive : ASUS DRW-24B1LT Adapter: 11 ID: 12
Read mode : SecureUtilize accurate stream : YesDefeat audio cache : YesMake use of C2 pointers : No
Read offset correction : 6Overread into Lead-In and Lead-Out : NoFill up missing offset samples with silence : YesDelete leading and trailing silent blocks : NoNull samples used in CRC calculations : YesUsed interface : Native Win32 interface for Win NT & 2000
Used output format : User Defined EncoderSelected bitrate : 1024 kBit/sQuality : HighAdd ID3 tag : NoCommand line compressor : C:\Program Files (x86)\Exact Audio Copy\Flac\flac.exeAdditional command line options : -8 -V %s
TOC of the extracted CD
Track | Start | Length | Start sector | End sector --------------------------------------------------------- 1 | 0:00.00 | 2:25.65 | 0 | 10939 2 | 2:25.65 | 3:57.45 | 10940 | 28759 3 | 6:23.35 | 4:37.48 | 28760 | 49582 4 | 11:01.08 | 2:28.64 | 49583 | 60746 5 | 13:29.72 | 3:45.37 | 60747 | 77658 6 | 17:15.34 | 6:39.28 | 77659 | 107611 7 | 23:54.62 | 3:52.46 | 107612 | 125057 8 | 27:47.33 | 2:17.24 | 125058 | 135356 9 | 30:04.57 | 2:00.38 | 135357 | 144394 10 | 32:05.20 | 3:46.55 | 144395 | 161399 11 | 35:52.00 | 3:42.32 | 161400 | 178081 12 | 39:34.32 | 2:56.16 | 178082 | 191297 13 | 42:30.48 | 2:37.34 | 191298 | 203106 14 | 45:08.07 | 1:04.08 | 203107 | 207914 15 | 46:12.15 | 7:21.51 | 207915 | 241040 16 | 53:33.66 | 2:53.56 | 241041 | 254071 17 | 56:27.47 | 3:54.17 | 254072 | 271638 18 | 60:21.64 | 2:44.43 | 271639 | 283981 19 | 63:06.32 | 3:43.48 | 283982 | 300754 20 | 66:50.05 | 5:28.19 | 300755 | 325373 21 | 72:18.24 | 1:49.03 | 325374 | 333551
Range status and errors
Selected range
Filename H:\ПОДГОТОВКА\Король и Шут\2007 - Страшные Скази (2007, Никитин)\Король и Шут - Страшные Скази (2007, Никитин).wav
Peak level 100.0 % Extraction speed 0.2 X Range quality 99.9 % Copy CRC 185BBFB1 Copy OK
No errors occurred
AccurateRip summary
Track 1 accurately ripped (confidence 6) [3D26A9BC]Track 2 accurately ripped (confidence 6) [34999D89]Track 3 accurately ripped (confidence 6) [3F19967D]Track 4 accurately ripped (confidence 6) [95AA88C8]Track 5 accurately ripped (confidence 6) [B0B19BB4]Track 6 accurately ripped (confidence 6) [54DC0E7F]Track 7 accurately ripped (confidence 6) [91034301]Track 8 accurately ripped (confidence 6) [E28ACB4A]Track 9 accurately ripped (confidence 6) [AAD31B94]Track 10 accurately ripped (confidence 6) [22EF47E2]Track 11 accurately ripped (confidence 6) [DA3D8BEB]Track 12 accurately ripped (confidence 6) [650BB4DC]Track 13 accurately ripped (confidence 6) [7ED55ACD]Track 14 accurately ripped (confidence 6) [FBB11602]Track 15 accurately ripped (confidence 6) [336A5B2C]Track 16 accurately ripped (confidence 6) [5AB77AA2]Track 17 accurately ripped (confidence 6) [0A87BDC0]Track 18 accurately ripped (confidence 6) [3E398306]Track 19 accurately ripped (confidence 6) [0ED86D5B]Track 20 accurately ripped (confidence 6) [BB552AD7]Track 21 accurately ripped (confidence 6) [BE9931D9]
All tracks accurately ripped
End of status report

2008 - Тень Клоуна (2008, Никитин)

01. Полутень клоуна (0:34)
02. Тень клоуна (2:17)
03. Дагон (5:03)
04. Двое против всех (3:53)
05. В Париж - домой (4:55)
06. Ричард Гордон (3:33)
07. Фред (3:20)
08. Санта Клаус (3:14)
09. Кода (3:54)
10. Полутень Заговор в суде (0:38)
11. Невидимка (3:53)
12. A.M.T.V. (3:54)
13. Полутень зомби (0:26)
14. Ходит зомби (1:56)
15. Смешной пистолетик (2:26)
16. Вестник (3:40)
17. Клеймённый огнём (4:36)
18. Тринадцатая рана (2:41)
19. Суфлёр (бонус) (4:10)

Лог создания рипа

Exact Audio Copy V1.0 beta 1 from 15. November 2010
EAC extraction logfile from 21. March 2011, 19:57
Король и Шут / Тень Клоуна (2008, Никитин)
Used drive : ASUS DRW-24B1LT Adapter: 11 ID: 12
Read mode : SecureUtilize accurate stream : YesDefeat audio cache : YesMake use of C2 pointers : No
Read offset correction : 6Overread into Lead-In and Lead-Out : NoFill up missing offset samples with silence : YesDelete leading and trailing silent blocks : NoNull samples used in CRC calculations : YesUsed interface : Native Win32 interface for Win NT & 2000
Used output format : User Defined EncoderSelected bitrate : 1024 kBit/sQuality : HighAdd ID3 tag : NoCommand line compressor : C:\Program Files (x86)\Exact Audio Copy\Flac\flac.exeAdditional command line options : -8 -V %s
TOC of the extracted CD
Track | Start | Length | Start sector | End sector --------------------------------------------------------- 1 | 0:00.00 | 0:33.59 | 0 | 2533 2 | 0:33.59 | 2:16.70 | 2534 | 12803 3 | 2:50.54 | 5:02.53 | 12804 | 35506 4 | 7:53.32 | 3:52.68 | 35507 | 52974 5 | 11:46.25 | 4:55.24 | 52975 | 75123 6 | 16:41.49 | 3:33.11 | 75124 | 91109 7 | 20:14.60 | 3:20.23 | 91110 | 106132 8 | 23:35.08 | 3:14.34 | 106133 | 120716 9 | 26:49.42 | 3:53.40 | 120717 | 138231 10 | 30:43.07 | 0:38.15 | 138232 | 141096 11 | 31:21.22 | 3:53.06 | 141097 | 158577 12 | 35:14.28 | 3:54.13 | 158578 | 176140 13 | 39:08.41 | 0:25.60 | 176141 | 178075 14 | 39:34.26 | 1:56.10 | 178076 | 186785 15 | 41:30.36 | 2:26.20 | 186786 | 197755 16 | 43:56.56 | 3:39.49 | 197756 | 214229 17 | 47:36.30 | 4:35.47 | 214230 | 234901 18 | 52:12.02 | 2:41.12 | 234902 | 246988 19 | 54:53.14 | 4:10.12 | 246989 | 265750
Range status and errors
Selected range
Filename H:\ПОДГОТОВКА\Король и Шут\2008 - Тень Клоуна (2008, Никитин)\Король и Шут - Тень Клоуна (2008, Никитин).wav
Peak level 97.4 % Extraction speed 0.5 X Range quality 100.0 % Copy CRC E312AB40 Copy OK
No errors occurred
AccurateRip summary
Track 1 accurately ripped (confidence 3) [A9FF18BE]Track 2 accurately ripped (confidence 3) [73A55085]Track 3 accurately ripped (confidence 3) [F5B1CC6B]Track 4 accurately ripped (confidence 3) [3D73B6FE]Track 5 accurately ripped (confidence 3) [5870C8BD]Track 6 accurately ripped (confidence 3) [99F98C84]Track 7 accurately ripped (confidence 3) [3D5FDA32]Track 8 accurately ripped (confidence 3) [ABCDB819]Track 9 accurately ripped (confidence 3) [CE8AE689]Track 10 accurately ripped (confidence 3) [511BD052]Track 11 accurately ripped (confidence 3) [ACFD9049]Track 12 accurately ripped (confidence 3) [567B7DA7]Track 13 accurately ripped (confidence 3) [ACD700BB]Track 14 accurately ripped (confidence 3) [4FEDEC42]Track 15 accurately ripped (confidence 3) [0F1E9ABC]Track 16 accurately ripped (confidence 3) [B9D071FE]Track 17 accurately ripped (confidence 3) [E7B5410D]Track 18 accurately ripped (confidence 2) [5CC3EE8C]Track 19 accurately ripped (confidence 2) [9A0612BC]
All tracks accurately ripped
End of status report

2010 - Театр Демона (2010, Никитин)

01. Послание (1:58)
02. Театральный демон (3:34)
03. Киногерой (3:35)
04. Фокусник (3:33)
05. Танец злобного гения (3:56)
06. Энди Кауфман (2:33)
07. Мадам Жоржетт (6:08)
08. Бунтарь (4:13)
09. Тёмный учитель (4:36)
10. Король вечного сна (5:03)
11. Бал лицемеров (3:06)
12. Защитники (3:22)

Лог создания рипа

Exact Audio Copy V0.99 prebeta 5 from 4. May 2009
EAC extraction logfile from 15. October 2010, 21:51
Король и Шут / Театръ Демона
Used drive : TSSTcorpCDDVDW SH-S222A Adapter: 0 ID: 0
Read mode : SecureUtilize accurate stream : YesDefeat audio cache : YesMake use of C2 pointers : No
Read offset correction : 6Overread into Lead-In and Lead-Out : NoFill up missing offset samples with silence : YesDelete leading and trailing silent blocks : NoNull samples used in CRC calculations : YesUsed interface : Native Win32 interface for Win NT & 2000
Used output format : Internal WAV RoutinesSample format : 44.100 Hz; 16 Bit; Stereo
TOC of the extracted CD
Track | Start | Length | Start sector | End sector --------------------------------------------------------- 1 | 0:00.00 | 1:57.40 | 0 | 8814 2 | 1:57.40 | 3:33.59 | 8815 | 24848 3 | 5:31.24 | 3:35.25 | 24849 | 40998 4 | 9:06.49 | 3:33.11 | 40999 | 56984 5 | 12:39.60 | 3:56.01 | 56985 | 74685 6 | 16:35.61 | 2:33.07 | 74686 | 86167 7 | 19:08.68 | 6:08.12 | 86168 | 113779 8 | 25:17.05 | 4:13.29 | 113780 | 132783 9 | 29:30.34 | 4:35.49 | 132784 | 153457 10 | 34:06.08 | 5:02.46 | 153458 | 176153 11 | 39:08.54 | 3:06.31 | 176154 | 190134 12 | 42:15.10 | 3:21.63 | 190135 | 205272
Range status and errors
Selected range
Filename D:\emish\RuTracker\Король и Шут - Театръ Демона (2010)\Король и Шут - Театръ Демона.wav
Peak level 97.7 % Range quality 100.0 % Test CRC E31AF682 Copy CRC E31AF682 Copy OK
No errors occurred
AccurateRip summary
Track 1 not present in databaseTrack 2 not present in databaseTrack 3 not present in databaseTrack 4 not present in databaseTrack 5 not present in databaseTrack 6 not present in databaseTrack 7 not present in databaseTrack 8 not present in databaseTrack 9 not present in databaseTrack 10 not present in databaseTrack 11 not present in databaseTrack 12 not present in database
None of the tracks are present in the AccurateRip database
End of status report

2011 - TODD. Акт 1.Праздник крови (2011, Союз)

01. Добрые Люди (Хор Нищих) (5:16)
02. Баллада о Бедном Цирюльнике (Ария Бродяги) (3:19)
03. Каторжник (Ария Тодда) (3:23)
04. Пирожки От Ловетт (Хор Нищих и Бродяг) (3:55)
05. Праздник Крови (Ария Судьи) (3:00)
06. Машина Смерти (Ария Ловетт и Мясника) (3:38)
07. Смертный Приговор (Ария Тодда и Мясника) (3:32)
08. Признание Ловетт (Ария Ловетт) (3:41)
09. Первая Кровь (Ария Священника и Тодда) (3:51)
10. Новая Пирожковая (Ария Благородной Толпы) (2:12)
11. Счастье? (Ария Тодда) (3:25)

Лог создания рипа

Exact Audio Copy V1.0 beta 1 from 15. November 2010
EAC extraction logfile from 17. January 2012, 22:25
Король и Шут / Акт 1. Праздник Крови
Used drive : HL-DT-STDVD-RAM GH22NP20 Adapter: 1 ID: 0
Read mode : SecureUtilize accurate stream : YesDefeat audio cache : YesMake use of C2 pointers : No
Read offset correction : 102Overread into Lead-In and Lead-Out : NoFill up missing offset samples with silence : YesDelete leading and trailing silent blocks : NoNull samples used in CRC calculations : YesUsed interface : Native Win32 interface for Win NT & 2000
Used output format : User Defined EncoderSelected bitrate : 128 kBit/sQuality : HighAdd ID3 tag : NoCommand line compressor : C:\Program Files (x86)\FLAC\flac.exeAdditional command line options : -8 -V %s
TOC of the extracted CD
Track | Start | Length | Start sector | End sector --------------------------------------------------------- 1 | 0:00.00 | 5:16.26 | 0 | 23725 2 | 5:16.26 | 3:18.39 | 23726 | 38614 3 | 8:34.65 | 3:22.73 | 38615 | 53837 4 | 11:57.63 | 3:54.52 | 53838 | 71439 5 | 15:52.40 | 2:59.41 | 71440 | 84905 6 | 18:52.06 | 3:37.63 | 84906 | 101243 7 | 22:29.69 | 3:32.28 | 101244 | 117171 8 | 26:02.22 | 3:40.38 | 117172 | 133709 9 | 29:42.60 | 3:51.26 | 133710 | 151060 10 | 33:34.11 | 2:11.49 | 151061 | 160934 11 | 35:45.60 | 3:25.07 | 160935 | 176316
Range status and errors
Selected range
Filename D:\Король и Шут - Акт 1. Праздник Крови.wav
Peak level 100.0 % Extraction speed 0.2 X Range quality 100.0 % Test CRC 056AE21B Copy CRC 056AE21B Copy OK
No errors occurred
AccurateRip summary
Track 1 not present in databaseTrack 2 not present in databaseTrack 3 not present in databaseTrack 4 not present in databaseTrack 5 not present in databaseTrack 6 not present in databaseTrack 7 not present in databaseTrack 8 not present in databaseTrack 9 not present in databaseTrack 10 not present in databaseTrack 11 not present in database
None of the tracks are present in the AccurateRip database
End of status report

2011 - TODD. Акт 2. На Краю (2012, Союз)

01. Смерть На Балу (Ария Солиста и Тодда) [4:41]
02. Маленький Остров (Ария Ловетт) [2:50]
03. Неупокоенный (Ария Тодда) [2:46]
04. Выход Судьи (Ария Судьи) [4:33]
05. Христова Невеста (Дуэт Элизы и Тодда) [3:51]
06. Священник Больше Ничего Не Скажет (Ария Тодда) [4:24]
07. Небесный Суд (Дуэт Судьи и Тодда) [4:37]
08. Почему Ты Жива? (Ария Тодда) [3:04]
09. Смерть Ловетт (Ария Ловетт) [1:34]
10. На Краю (Последния ария Тодда) [4:05]

Лог создания рипа

Exact Audio Copy V1.0 beta 1 from 15. November 2010
Отчёт EAC об извлечении, выполненном 26. мая 2012, 22:03
Король и Шут / TODD. Акт 2. На Краю
Дисковод: SONY BD RW BWU-500S Adapter: 4 ID: 0
Режим чтения : ДостоверностьИспользование точного потока : ДаОтключение кэша аудио : ДаИспользование указателей C2 : Нет
Коррекция смещения при чтении : 6Способность читать области Lead-in и Lead-out : НетЗаполнение пропущенных сэмплов тишиной : ДаУдаление блоков с тишиной в начале и конце : НетПри вычислениях CRC использовались нулевые сэмплы : ДаИнтерфейс : Встроенный Win32-интерфейс для Win NT/2000
Выходной формат : Пользовательский кодировщикВыбранный битрейт : 1024 kBit/sКачество : ВысокийДобавление ID3-тега : ДаУтилита сжатия : C:\Program Files\Exact Audio Copy\Flac\flac.exeДополнительные параметры : -8 -V %s
TOC извлечённого CD
Трек | Старт | Длительность | Начальный сектор | Конечный сектор --------------------------------------------------------------------- 1 | 0:00.00 | 4:41.12 | 0 | 21086 2 | 4:41.12 | 2:50.22 | 21087 | 33858 3 | 7:31.34 | 2:46.02 | 33859 | 46310 4 | 10:17.36 | 4:33.22 | 46311 | 66807 5 | 14:50.58 | 3:50.41 | 66808 | 84098 6 | 18:41.24 | 4:23.53 | 84099 | 103876 7 | 23:05.02 | 4:37.11 | 103877 | 124662 8 | 27:42.13 | 3:03.56 | 124663 | 138443 9 | 30:45.69 | 1:34.14 | 138444 | 145507 10 | 32:20.08 | 4:05.27 | 145508 | 163909
Характеристики диапазона извлечения и сообщения об ошибках
Выбранный диапазон
Имя файла D:\e\Раздача\Музыка (LossLess)\Король и Шут - TODD. Акт 2. На краю (FLAC)\Король и Шут - TODD. Акт 2. На Краю.wav
Пиковый уровень 96.7 % Скорость извлечения 0.8 X Качество диапазона 100.0 % CRC теста 7E45670E CRC копии 7E45670E Копирование... OK
Ошибок не произошло
AccurateRip: сводка
Трек 1 отсутствует в базе данныхТрек 2 отсутствует в базе данныхТрек 3 отсутствует в базе данныхТрек 4 отсутствует в базе данныхТрек 5 отсутствует в базе данныхТрек 6 отсутствует в базе данныхТрек 7 отсутствует в базе данныхТрек 8 отсутствует в базе данныхТрек 9 отсутствует в базе данныхТрек 10 отсутствует в базе данных
Ни одного трека нет в базе AccurateRip
Конец отчёта

compilation - 2001 - Живая Коллекция (2001, Media Star)

01. Король и Шут (2:37)
02. Скоморох (1:42)
03. Садовник (2:55)
04. Злодей и шапка (2:09)
05. Веселые тролли (3:04)
06. Живая голова (2:18)
07. Охотник (2:24)
08. Шар голубой (1:17)
09. Рыбак (1:42)
10. Отец и маски (2:49)
11. Два друга (2:13)
12. Сапоги (2:22)
13. Камнем по голове (2:20)
14. Блуждают тени (2:05)
15. Холодное лето (2:37)
16. Дурак и молния (2:02)
17. Два вора и монета (2:11)
18. От женщин кругом голова (1:16)
19. Леший обиделся (2:25)
20. Любовь и пропеллер (2:42)
21. Мотоцикл (2:39)
22. Помогите мне (2:25)
23. Yellow submarine (2:07)

Лог создания рипа

Отчёт EAC об извлечении, выполненном 27. января 2008, 14:52 для диска:Король и Шут / Живая коллекция
Дисковод: HL-DT-STDVDRAM GSA-4084N Adapter: 1 ID: 0Режим чтения: Достоверный (C2: нет, Точный поток: да, Отключение кэша: да)Коррекция смещения при чтении: 667Способность читать области Lead-in и Lead-out : Нет
Выходной формат: Внутренние WAV-операции 44.100 Гц; 16 бит; стерео
Другие параметры: Заполнение пропущенных сэмплов тишиной : Да Удаление блоков с тишиной в начале и конце : Нет Встроенный Win32-интерфейс для Win NT/2000
Характеристики диапазона извлечения и сообщения об ошибкахВыбранный диапазон Имя файла C:\Documents and Settings\!!!Vladimir\Рабочий стол\Король и Шут - Живая коллекция.wav
Пиковый уровень 100.0 % Качество диапазона 100.0 % CRC E51BAE7A Копирование... OK
Ошибок не произошло
Конец отчёта

compilation - 2009 - Лучшие Песни (Новая Коллекция) (2009, Монолит)

01. Ели Мясо Мужики (2:16)
02. Охотник (2:34)
03. Проклятый Старый Дом (4:19)
04. Медведь (3:29)
05. Прыгну Со Скалы (3:13)
06. Кукла Колдуна (3:24)
07. Лесник (3:10)
08. Внезапная Голова (2:26)
09. Воспоминания О Былой Любви (4:50)
10. Ром (2:42)
11. Джокер (3:17)
12. Камнем По Голове (2:36)
13. Валет И Дама (3:29)
14. Два Монаха В Одну Ночь (2:02)
15. Забытые Ботинки (2:48)
16. Ответ - Лютая Месть (3:48)
17. Помнят С Горечью Древляне (3:54)
18. Северный Флот (2:12)
19. Дагон (5:05)
20. Наблюдатель (4:42)
21. Отражение (5:32)
22. A.M.T.V. (3:56)
23. Марионетки (3:36)

Лог создания рипа

Exact Audio Copy V0.99 prebeta 5 from 4. May 2009
Отчёт EAC об извлечении, выполненном 23. июля 2009, 16:04
Король и Шут / Лучшие Песни (Новая Коллекция)
Дисковод: Optiarc DVD RW AD-7203A Adapter: 1 ID: 0
Режим чтения : ДостоверностьИспользование точного потока : ДаОтключение кэша аудио : ДаИспользование указателей C2 : Нет
Коррекция смещения при чтении : 48Способность читать области Lead-in и Lead-out : НетЗаполнение пропущенных сэмплов тишиной : ДаУдаление блоков с тишиной в начале и конце : НетПри вычислениях CRC использовались нулевые сэмплы : ДаИнтерфейс : Встроенный Win32-интерфейс для Win NT/2000
Выходной формат : Пользовательский кодировщикВыбранный битрейт : 1024 kBit/sКачество : ВысокийДобавление ID3-тэга : НетУтилита сжатия : C:\Program Files\Exact Audio Copy\FLAC\FLAC.EXEДополнительные параметры : -T "artist=%a" -T "title=%t" -T "album=%g" -T "date=%y" -T "tracknumber=%n" -T "genre=%m" -8 %s
TOC извлечённого CD
Трек | Старт | Длительность | Начальный сектор | Конечный сектор --------------------------------------------------------------------- 1 | 0:00.00 | 2:15.39 | 0 | 10163 2 | 2:15.39 | 2:33.52 | 10164 | 21690 3 | 4:49.16 | 4:19.01 | 21691 | 41116 4 | 9:08.17 | 3:29.23 | 41117 | 56814 5 | 12:37.40 | 3:12.38 | 56815 | 71252 6 | 15:50.03 | 3:24.03 | 71253 | 86555 7 | 19:14.06 | 3:09.55 | 86556 | 100785 8 | 22:23.61 | 2:25.67 | 100786 | 111727 9 | 24:49.53 | 4:49.62 | 111728 | 133464 10 | 29:39.40 | 2:41.46 | 133465 | 145585 11 | 32:21.11 | 3:17.02 | 145586 | 160362 12 | 35:38.13 | 2:36.11 | 160363 | 172073 13 | 38:14.24 | 3:28.67 | 172074 | 187740 14 | 41:43.16 | 2:01.70 | 187741 | 196885 15 | 43:45.11 | 2:48.01 | 196886 | 209486 16 | 46:33.12 | 3:47.47 | 209487 | 226558 17 | 50:20.59 | 3:53.41 | 226559 | 244074 18 | 54:14.25 | 2:12.14 | 244075 | 253988 19 | 56:26.39 | 5:04.53 | 253989 | 276841 20 | 61:31.17 | 4:42.32 | 276842 | 298023 21 | 66:13.49 | 5:31.68 | 298024 | 322916 22 | 71:45.42 | 3:56.00 | 322917 | 340616 23 | 75:41.42 | 3:35.73 | 340617 | 356814
Характеристики диапазона извлечения и сообщения об ошибках
Выбранный диапазон
Имя файла D:\Король и Шут - Лучшие Песни (Новая Коллекция).wav
Пиковый уровень 100.0 % Качество диапазона 100.0 % CRC теста CA7BAE52 CRC копии CA7BAE52 Копирование... OK
Ошибок не произошло
Конец отчёта

Горшок - 2004 - Я Алкоголик Анархист

01. Милое дело (2:03)
02. Жизнь (3:09)
03. Деньги (1:28)
04. Квартира (2:43)
05. Кировский завод (2:08)
06. Долой гопоту! (2:26)
07. Никому не нужен (1:46)
08. Прогулка (1:49)
09. Иван Факов (2:12)
10. Соловьи (3:19)
11. Розовая Вода (1:43)
12. Чойболсан (1:29)

Лог создания рипа

Exact Audio Copy V1.0 beta 1 from 15. November 2010
EAC extraction logfile from 20. March 2011, 17:09
Горшок / Я Алкоголик Анархист
Used drive : ASUS DRW-24B1LT Adapter: 11 ID: 12
Read mode : SecureUtilize accurate stream : YesDefeat audio cache : YesMake use of C2 pointers : No
Read offset correction : 6Overread into Lead-In and Lead-Out : NoFill up missing offset samples with silence : YesDelete leading and trailing silent blocks : NoNull samples used in CRC calculations : YesUsed interface : Native Win32 interface for Win NT & 2000
Used output format : User Defined EncoderSelected bitrate : 1024 kBit/sQuality : HighAdd ID3 tag : NoCommand line compressor : C:\Program Files (x86)\Exact Audio Copy\Flac\flac.exeAdditional command line options : -8 -V %s
TOC of the extracted CD
Track | Start | Length | Start sector | End sector --------------------------------------------------------- 1 | 0:00.00 | 2:02.44 | 0 | 9193 2 | 2:02.44 | 3:08.61 | 9194 | 23354 3 | 5:11.30 | 1:28.19 | 23355 | 29973 4 | 6:39.49 | 2:43.31 | 29974 | 42229 5 | 9:23.05 | 2:07.63 | 42230 | 51817 6 | 11:30.68 | 2:26.10 | 51818 | 62777 7 | 13:57.03 | 1:46.27 | 62778 | 70754 8 | 15:43.30 | 1:49.02 | 70755 | 78931 9 | 17:32.32 | 2:11.39 | 78932 | 88795 10 | 19:43.71 | 3:18.39 | 88796 | 103684 11 | 23:02.35 | 1:42.43 | 103685 | 111377 12 | 24:45.03 | 1:28.39 | 111378 | 118016
Range status and errors
Selected range
Filename H:\ПОДГОТОВКА\Король и Шут\Горшок - 2004 - Я Алкоголик Анархист\Горшок - Я Алкоголик Анархист.wav
Peak level 99.3 % Extraction speed 0.4 X Range quality 100.0 % Copy CRC 3414AFF2 Copy OK
No errors occurred
AccurateRip summary
Track 1 accurately ripped (confidence 4) [4CA3186A]Track 2 accurately ripped (confidence 4) [AF60D32A]Track 3 accurately ripped (confidence 4) [3617452B]Track 4 accurately ripped (confidence 4) [A0AADB2D]Track 5 accurately ripped (confidence 4) [AB147F01]Track 6 accurately ripped (confidence 4) [6408CE7C]Track 7 accurately ripped (confidence 4) [30F898A6]Track 8 accurately ripped (confidence 4) [ED4B1455]Track 9 accurately ripped (confidence 4) [03D539C8]Track 10 accurately ripped (confidence 4) [12C8AFB8]Track 11 accurately ripped (confidence 4) [74902766]Track 12 accurately ripped (confidence 4) [8DAF4A09]
All tracks accurately ripped
End of status report
-О релизе:
В данный релиз вошли все доступные на данный момент издания альбомов и сборников гр. "Король и Шут".
Также в релиз входит сольный альбом Горшка.
Некоторые сканы сделаны с обычных изданий, хоть и существуют полноценные, подарочные.
Просьба помочь в дополнении!--

[Цитировать]



Показать сообщения:    

Текущее время: 09-Дек 16:34

Часовой пояс: UTC + 3


Вы не можете начинать темы
Вы не можете отвечать на сообщения
Вы не можете редактировать свои сообщения
Вы не можете удалять свои сообщения
Вы не можете голосовать в опросах
Вы не можете прикреплять файлы к сообщениям
Вы не можете скачивать файлы

!ВНИМАНИЕ!
Сайт не предоставляет электронные версии произведений, а занимается лишь коллекционированием и каталогизацией ссылок, присылаемых и публикуемых на форуме нашими читателями. Если вы являетесь правообладателем какого-либо представленного материала и не желаете, чтобы ссылка на него находилась в нашем каталоге, свяжитесь с нами, и мы незамедлительно удалим ее. Файлы для обмена на трекере предоставлены пользователями сайта, и администрация не несет ответственности за их содержание. Просьба не заливать файлы, защищенные авторскими правами, а также файлы нелегального содержания!