[ Сегодня идет свободное скачивание без начисления Download ]


Статистика раздачи
Нет
 
   
 
Top  
 
 
-Железный человек 3 / Iron Man 3
«Герой будет сражен»
- Год выпуска: 2013
Производство: США, Китай / Marvel Studios Inc., Paramount Pictures
Жанр: Фантастика, Боевик, Приключения
Перевод: Дублированный (Русский, Украинский)
Субтитры: Вшитые отключаемые
Язык субтитров: Русский (forced, full), украинский (forced, full), английский (full, SDH)
Режиссер: Шейн Блэк / Shane Black
Продюсер: Кевин Файги, Виктория Алонсо, Митчелл Белл
Актеры: Роберт Дауни мл., Гвинет Пэлтроу, Дон Чидл, Гай Пирс, Бен Кингсли, Джеймс Бэдж Дэйл, Ребекка Холл, Тай Симпкинс, Уильям Сэдлер, Джон Фавро
Описание фильма:
Когда мир Старка рушится на его глазах по вине неизвестных противников, Тони жаждет найти виновных и свести с ними счеты. Оказавшись в безвыходной ситуации, Старк может рассчитывать только на себя и свою изобретательность, чтобы защитить тех, кто ему дорог. Это становится настоящим испытанием для героя, которому придется не только сражаться с коварным врагом, но и разобраться в себе, чтобы найти ответ на вопрос, который давно его тревожит: что важнее — человек или костюм?

Дата мировой премьеры: 18 апреля 2013
Дата российской премьеры: 2 мая 2013, «WDSSPR»
Дата выхода DVD релиза: 27 августа 2013, «Уолт Дисней Компани СНГ»
Дата выхода Blu-Ray релиза: 27 августа 2013, «Уолт Дисней Компани СНГ»
Рейтинг PG-13 - Детям до 13 лет просмотр не желателен
Возраст 12+ - зрителям, достигшим 12 лет
Продолжительность: 02:10:32
Качество видео: BDRip 3D [CHD]
Видео: MPEG4_AVC/H.264, 1920x800, ~12000 kbps, 23.976 fps
Аудио 1: DTS 5.1, 1536 kbps, 48 kHz [Русский - дублированный «Disney / Buena Vista»]
Аудио 2: AC3 2.0, 192 kbps, 48 kHz [Украинский - дублированный «iTunes Russia»]
Аудио 3: DTS 5.1, 1536 kbps, 48 kHz [Английский - оригинал]

Отчёт MediaInfo

Полное имя : D:\Железный.человек.3-Iron.Man.3.(2013).BDRip.[1080p].3D.(HSBS).mkv
Формат : Matroska
Версия формата : Version 2
Размер файла : 14,1 Гбайт
Продолжительность : 2 ч. 10 м.
Общий поток : 15,5 Мбит/сек
Название фильма : Iron Man 3 (2013) 3D
Дата кодирования : UTC 2013-08-24 02:24:04
Программа кодирования : mkvmerge v5.7.0 ('The Whirlwind') built on Aug 7 2012 14:11:40
Библиотека кодирования : libebml v1.2.3 + libmatroska v1.3.0
Видео
Идентификатор : 1
Формат : AVC
Формат/Информация : Advanced Video Codec
Профиль формата : High@L4.1
Параметр CABAC формата : Да
Параметр ReFrames формата : 3 кадра
Параметр GOP формата : M=4, N=24
Идентификатор кодека : V_MPEG4/ISO/AVC
Продолжительность : 2 ч. 10 м.
Битрейт : 12,0 Мбит/сек
Ширина : 1920 пикселей
Высота : 800 пикселей
Соотношение сторон : 2,40:1
Режим частоты кадров : Постоянный
Частота кадров : 23,976 кадра/сек
Цветовое пространство : YUV
Субдискретизация насыщенности : 4:2:0
Битовая глубина : 8 бит
Тип развёртки : Прогрессивная
Бит/(Пиксели*Кадры) : 0.325
Размер потока : 10,9 Гбайт (77%)
Библиотека кодирования : x264 core
Язык : English
Default : Да
Forced : Нет
Основные цвета : BT.709
Характеристики трансфера : BT.709
Коэффициенты матрицы : BT.709
Аудио #1
Идентификатор : 2
Формат : DTS
Формат/Информация : Digital Theater Systems
Идентификатор кодека : A_DTS
Продолжительность : 2 ч. 10 м.
Вид битрейта : Постоянный
Битрейт : 1510 Кбит/сек
Каналы : 6 каналов
Расположение каналов : Front: L C R, Side: L R, LFE
Частота : 48,0 КГц
Битовая глубина : 24 бит
Метод сжатия : С потерями
Размер потока : 1,38 Гбайт (10%)
Заголовок : DTS 5.1 / 1536 kbps (Disney / Buena Vista)
Язык : Russian
Default : Да
Forced : Нет
Аудио #2
Идентификатор : 3
Формат : AC-3
Формат/Информация : Audio Coding 3
Расширение режима : CM (complete main)
Параметр Endianness формата : Big
Идентификатор кодека : A_AC3
Продолжительность : 2 ч. 10 м.
Вид битрейта : Постоянный
Битрейт : 192 Кбит/сек
Каналы : 2 канала
Расположение каналов : Front: L R
Частота : 48,0 КГц
Битовая глубина : 16 бит
Метод сжатия : С потерями
Размер потока : 179 Мбайт (1%)
Заголовок : AC3 2.0 / 192 kbps (iTunes)
Язык : Ukrainian
Default : Нет
Forced : Нет
Аудио #3
Идентификатор : 4
Формат : DTS
Формат/Информация : Digital Theater Systems
Идентификатор кодека : A_DTS
Продолжительность : 2 ч. 10 м.
Вид битрейта : Постоянный
Битрейт : 1510 Кбит/сек
Каналы : 6 каналов
Расположение каналов : Front: L C R, Side: L R, LFE
Частота : 48,0 КГц
Битовая глубина : 24 бит
Метод сжатия : С потерями
Размер потока : 1,38 Гбайт (10%)
Заголовок : DTS 5.1 / 1536 kbps
Язык : English
Default : Нет
Forced : Нет
Текст #1
Идентификатор : 5
Формат : UTF-8
Идентификатор кодека : S_TEXT/UTF8
Идентификатор кодека/Информация : UTF-8 Plain Text
Заголовок : Forced
Язык : Russian
Default : Да
Forced : Нет
Текст #2
Идентификатор : 6
Формат : UTF-8
Идентификатор кодека : S_TEXT/UTF8
Идентификатор кодека/Информация : UTF-8 Plain Text
Заголовок : Full
Язык : Russian
Default : Нет
Forced : Нет
Текст #3
Идентификатор : 7
Формат : UTF-8
Идентификатор кодека : S_TEXT/UTF8
Идентификатор кодека/Информация : UTF-8 Plain Text
Заголовок : Forced
Язык : Ukrainian
Default : Нет
Forced : Нет
Текст #4
Идентификатор : 8
Формат : UTF-8
Идентификатор кодека : S_TEXT/UTF8
Идентификатор кодека/Информация : UTF-8 Plain Text
Заголовок : Full
Язык : Ukrainian
Default : Нет
Forced : Нет
Текст #5
Идентификатор : 9
Формат : UTF-8
Идентификатор кодека : S_TEXT/UTF8
Идентификатор кодека/Информация : UTF-8 Plain Text
Заголовок : Full
Язык : English
Default : Нет
Forced : Нет
Текст #6
Идентификатор : 10
Формат : UTF-8
Идентификатор кодека : S_TEXT/UTF8
Идентификатор кодека/Информация : UTF-8 Plain Text
Заголовок : SDH
Язык : English
Default : Нет
Forced : Нет
Меню
00:00:00.000 : :1. New Year's Eve, 1999
00:04:52.751 : :2. R60 Department
00:07:55.433 : :3. The Mandarin
00:12:12.440 : :4. Killian Returns
00:19:04.101 : :5. Tony & Pepper at Home
00:23:47.885 : :6. Happy Follows Savin
00:29:47.703 : :7. House Attack
00:39:46.384 : :8. Rose Hill, Tennessee
00:45:56.045 : :9. Unraveling the Past
00:59:19.639 : :10. The Mandarin Teaches a Lesson
01:01:56.922 : :11. Tony Hacks A.I.M.
01:09:24.452 : :12. Locating the Mandarin
01:18:41.508 : :13. Captured by Killian
01:23:52.945 : :14. Attack on Air Force One
01:37:55.995 : :15. Showdown at the Docks
01:56:18.305 : :16. New Beginnings
01:59:38.755 : :17. End Credits

[Цитировать]



Показать сообщения:    

Текущее время: 23-Май 09:08

Часовой пояс: UTC + 6


Вы не можете начинать темы
Вы не можете отвечать на сообщения
Вы не можете редактировать свои сообщения
Вы не можете удалять свои сообщения
Вы не можете голосовать в опросах
Вы не можете прикреплять файлы к сообщениям
Вы не можете скачивать файлы

!ВНИМАНИЕ!
Сайт не предоставляет электронные версии произведений, а занимается лишь коллекционированием и каталогизацией ссылок, присылаемых и публикуемых на форуме нашими читателями. Если вы являетесь правообладателем какого-либо представленного материала и не желаете, чтобы ссылка на него находилась в нашем каталоге, свяжитесь с нами, и мы незамедлительно удалим ее. Файлы для обмена на трекере предоставлены пользователями сайта, и администрация не несет ответственности за их содержание. Просьба не заливать файлы, защищенные авторскими правами, а также файлы нелегального содержания!