[ Сегодня идет свободное скачивание без начисления Download ]


Статистика раздачи
Нет
 
   
 
Top  
 
 
-Семейка вампиров / Die Vampirschwestern (2012) HDRip- Год выпуска: 2012
Производство: Германия
Жанр: Фэнтези, Комедия, Семейный
Описание фильма:
В один прекрасный солнечный день, в самый обыкновенный городок, приезжает самая необыкновенная семья… Папа, мама и сестры — Дакария и Сильвения… семья вампиров! Девочкам придется привыкать к обычной жизни людей — ходить в школу, носить темные очки, использовать крем от загара… И, главное, они должны быть предельно осторожны, чтобы не выдать свою тайну…
Режиссер: Вольфганг Гроос
Актеры: Марта Мартин, Кристиана Пауль, Стипе Эрцег, Михаэль Кесслер, Рихи Мюллер, Джэйми Бик, Йонас Холденриедер, Йеремиас Мейер, Май Яблонски, Робин Кирш
Продолжительность: 01:37:32
Качество видео: HDRip
Перевод: Дублированный
Дата мировой премьеры: 24.12.2012
Дата российской премьеры: 31.10.2013, «Экспонента»
Видеокодек: Xvid
Битрейт видео: ~1685 kb/s
Размер кадра: 720x384
Аудиокодек: AC3
Битрейт аудио: 448 kb/s (6 ch)

MediaInfo:

Формат : AVI
Формат/Информация : Audio Video Interleave
Размер файла : 1,46 Гбайт
Продолжительность : 1 ч. 37 м.
Общий поток : 2142 Кбит/сек
Программа кодирования : VirtualDubMod 1.5.10.2 (build 2540/release)
Библиотека кодирования : VirtualDubMod build 2540/release
Видео
Идентификатор : 0
Формат : MPEG-4 Visual
Профиль формата : Advanced Simple@L5
Параметр BVOP формата : 2
Параметр QPel формата : Нет
Параметр GMC формата : Без точки перехода
Параметр матрицы формата : Default (MPEG)
Идентификатор кодека : XVID
Идентификатор кодека/Подсказка : XviD
Продолжительность : 1 ч. 37 м.
Битрейт : 1685 Кбит/сек
Ширина : 720 пикселей
Высота : 384 пикселя
Соотношение сторон : 1,85:1
Частота кадров : 23,976 кадра/сек
Цветовое пространство : YUV
Субдискретизация насыщенности : 4:2:0
Битовая глубина : 8 бит
Тип развёртки : Прогрессивная
Метод сжатия : С потерями
Бит/(Пиксели*Кадры) : 0.254
Размер потока : 1,15 Гбайт (79%)
Библиотека кодирования : XviD 1.2.1 (UTC 2008-12-04)
Аудио
Идентификатор : 1
Формат : AC-3
Формат/Информация : Audio Coding 3
Расширение режима : CM (complete main)
Параметр Endianness формата : Big
Идентификатор кодека : 2000
Продолжительность : 1 ч. 37 м.
Вид битрейта : Постоянный
Битрейт : 448 Кбит/сек
Каналы : 6 каналов
Расположение каналов : Front: L C R, Side: L R, LFE
Частота : 48,0 КГц
Битовая глубина : 16 бит
Метод сжатия : С потерями
Размер потока : 313 Мбайт (21%)
Выравнивание : Разделение по промежуткам
Продолжительность промежутка : 42 мс. (1,00 видеокадр)
Время предзагрузки промежутка : 500 мс.
Скриншоты:
[th]http://img.torrentsclub.org/di/ORLA/5ad528963a9c26f...176f50b.jpg[/th] [th]http://img.torrentsclub.org/di/JIL2/5b624c71e023bcd...243683c.jpg[/th] [th]http://img.torrentsclub.org/di/B72M/8022560a85ebefc...c79f960.jpg[/th] [th]http://img.torrentsclub.org/di/N0KT/c7647f0842e6771...49f8142.jpg[/th]
Время раздачи: с 11:00 до 23:00, до 10 скачавших. Дальше по мере возможности.

[Цитировать]



Показать сообщения:    

Текущее время: 25-Фев 12:15

Часовой пояс: UTC + 3


Вы не можете начинать темы
Вы не можете отвечать на сообщения
Вы не можете редактировать свои сообщения
Вы не можете удалять свои сообщения
Вы не можете голосовать в опросах
Вы не можете прикреплять файлы к сообщениям
Вы не можете скачивать файлы

!ВНИМАНИЕ!
Сайт не предоставляет электронные версии произведений, а занимается лишь коллекционированием и каталогизацией ссылок, присылаемых и публикуемых на форуме нашими читателями. Если вы являетесь правообладателем какого-либо представленного материала и не желаете, чтобы ссылка на него находилась в нашем каталоге, свяжитесь с нами, и мы незамедлительно удалим ее. Файлы для обмена на трекере предоставлены пользователями сайта, и администрация не несет ответственности за их содержание. Просьба не заливать файлы, защищенные авторскими правами, а также файлы нелегального содержания!