[ Сегодня идет свободное скачивание без начисления Download ]


Статистика раздачи
Нет
 
   
 
Top  
 
 
-Железный человек 3 / Iron Man 3 (2013) BDRip
«Герой будет сражен»
- Год выпуска: 2013
Производство: США, Китай / Marvel Studios Inc., Paramount Pictures
Жанр: Фантастика, Боевик, Приключения
Перевод: Дублированный (Русский, Украинский)
Субтитры: Вшитые отключаемые
Язык субтитров: Русский (forced, full, commentary), украинский (forced, full), английский (full, SDH)
Режиссер: Шейн Блэк / Shane Black
Продюсер: Кевин Файги, Виктория Алонсо, Митчелл Белл
Актеры: Роберт Дауни мл., Гвинет Пэлтроу, Дон Чидл, Гай Пирс, Бен Кингсли, Джеймс Бэдж Дэйл, Ребекка Холл, Тай Симпкинс, Уильям Сэдлер, Джон Фавро
Описание фильма:
Когда мир Старка рушится на его глазах по вине неизвестных противников, Тони жаждет найти виновных и свести с ними счеты. Оказавшись в безвыходной ситуации, Старк может рассчитывать только на себя и свою изобретательность, чтобы защитить тех, кто ему дорог. Это становится настоящим испытанием для героя, которому придется не только сражаться с коварным врагом, но и разобраться в себе, чтобы найти ответ на вопрос, который давно его тревожит: что важнее — человек или костюм?

Дата мировой премьеры: 18 апреля 2013
Дата российской премьеры: 2 мая 2013, «WDSSPR»
Дата выхода DVD релиза: 27 августа 2013, «Уолт Дисней Компани СНГ»
Дата выхода Blu-Ray релиза: 27 августа 2013, «Уолт Дисней Компани СНГ»
Рейтинг PG-13 - Детям до 13 лет просмотр не желателен
Возраст 12+ - зрителям, достигшим 12 лет
Продолжительность: 02:10:32
Качество видео: BDRip [HDWinG]
Видео: MPEG4_AVC/H.264, 1920x800 (2.40:1), ~10600 kbps, 23.976 fps
Аудио 1: DTS 5.1, 1536 kbps, 48 kHz [Русский - дублированный «Disney / Buena Vista»]
Аудио 2: AC3 5.1, 640 kbps, 48 kHz [Русский - дублированный «Blu-Ray EUR»]
Аудио 3: AC3 2.0, 192 kbps, 48 kHz [Украинский - дублированный «iTunes Russia»]
Аудио 4: DTS 5.1, 1536 kbps, 48 kHz [Английский - оригинал]
Аудио 5: AC3 2.0, 192 kbps, 48 kHz [Английский - комментарий]

x264 log

x264 [info]: frame I:1726 Avg QP:12.04 size:186798
x264 [info]: frame P:51668 Avg QP:13.09 size: 97754
x264 [info]: frame B:134407 Avg QP:14.25 size: 39515
x264 [info]: consecutive B-frames: 5.1% 8.0% 12.7% 27.0% 21.5% 18.8% 4.2% 1.5% 1.2%

MI

Полное имя : D:\Железный.человек.3-Iron.Man.3.(2013).BDRip.[1080p].mkv
Формат : Matroska
Версия формата : Version 2
Размер файла : 13,6 Гбайт
Продолжительность : 2 ч. 10 м.
Общий поток : 15,0 Мбит/сек
Название фильма : Iron Man 3 / NNM-Club
Дата кодирования : UTC 2013-08-20 18:05:51
Программа кодирования : mkvmerge v5.7.0 ('The Whirlwind') built on Aug 7 2012 14:11:40
Библиотека кодирования : libebml v1.2.3 + libmatroska v1.3.0
Видео
Идентификатор : 1
Формат : AVC
Формат/Информация : Advanced Video Codec
Профиль формата : [email protected]
Параметр CABAC формата : Да
Параметр ReFrames формата : 5 кадров
Идентификатор кодека : V_MPEG4/ISO/AVC
Битрейт : 10,6 Мбит/сек
Ширина : 1920 пикселей
Высота : 800 пикселей
Соотношение сторон : 2,40:1
Режим частоты кадров : Переменный
Частота кадров в оригинале : 23,976 кадра/сек
Цветовое пространство : YUV
Субдискретизация насыщенности : 4:2:0
Битовая глубина : 8 бит
Тип развёртки : Прогрессивная
Библиотека кодирования : x264 core 132 r2323+704+51 d571b1c tMod [[email protected]:2:0 X86_64]
Настройки программы : cabac=1 / ref=5 / deblock=1:-3:-3 / analyse=0x3:0x113 / me=umh / subme=11 / psy=1 / fade_compensate=0.00 / psy_rd=1.00:0.00 / mixed_ref=1 / me_range=32 / chroma_me=1 / trellis=2 / 8x8dct=1 / cqm=0 / deadzone=21,11 / fast_pskip=0 / chroma_qp_offset=-2 / threads=36 / lookahead_threads=6 / sliced_threads=0 / nr=0 / decimate=0 / interlaced=0 / bluray_compat=0 / constrained_intra=0 / fgo=0 / bframes=8 / b_pyramid=2 / b_adapt=2 / b_bias=0 / direct=3 / weightb=1 / open_gop=0 / weightp=2 / keyint=240 / keyint_min=24 / scenecut=40 / intra_refresh=0 / rc=crf / mbtree=0 / crf=15.2000 / qcomp=0.70 / qpmin=0 / qpmax=69 / qpstep=4 / ip_ratio=1.20 / pb_ratio=1.20 / aq=4:0.85 / aq-sensitivity=10.00 / aq-factor=1.00:1.00:1.00 / aq2=0 / aq3=0
Язык : English
Default : Да
Forced : Нет
Аудио #1
Идентификатор : 2
Формат : DTS
Формат/Информация : Digital Theater Systems
Идентификатор кодека : A_DTS
Продолжительность : 2 ч. 10 м.
Вид битрейта : Постоянный
Битрейт : 1510 Кбит/сек
Каналы : 6 каналов
Расположение каналов : Front: L C R, Side: L R, LFE
Частота : 48,0 КГц
Битовая глубина : 24 бит
Метод сжатия : С потерями
Размер потока : 1,38 Гбайт (10%)
Заголовок : DTS 5.1 / 1536 kbps (Disney / Buena Vista)
Язык : Russian
Default : Да
Forced : Нет
Аудио #2
Идентификатор : 3
Формат : AC-3
Формат/Информация : Audio Coding 3
Расширение режима : CM (complete main)
Параметр Endianness формата : Big
Идентификатор кодека : A_AC3
Продолжительность : 2 ч. 10 м.
Вид битрейта : Постоянный
Битрейт : 640 Кбит/сек
Каналы : 6 каналов
Расположение каналов : Front: L C R, Side: L R, LFE
Частота : 48,0 КГц
Битовая глубина : 16 бит
Метод сжатия : С потерями
Размер потока : 598 Мбайт (4%)
Заголовок : AC3 5.1 / 640 kbps (Blu-Ray EUR)
Язык : Russian
Default : Нет
Forced : Нет
Аудио #3
Идентификатор : 4
Формат : AC-3
Формат/Информация : Audio Coding 3
Расширение режима : CM (complete main)
Параметр Endianness формата : Big
Идентификатор кодека : A_AC3
Продолжительность : 2 ч. 10 м.
Вид битрейта : Постоянный
Битрейт : 192 Кбит/сек
Каналы : 2 канала
Расположение каналов : Front: L R
Частота : 48,0 КГц
Битовая глубина : 16 бит
Метод сжатия : С потерями
Размер потока : 179 Мбайт (1%)
Заголовок : AC3 2.0 / 192 kbps (iTunes)
Язык : Ukrainian
Default : Нет
Forced : Нет
Аудио #4
Идентификатор : 5
Формат : DTS
Формат/Информация : Digital Theater Systems
Идентификатор кодека : A_DTS
Продолжительность : 2 ч. 10 м.
Вид битрейта : Постоянный
Битрейт : 1510 Кбит/сек
Каналы : 6 каналов
Расположение каналов : Front: L C R, Side: L R, LFE
Частота : 48,0 КГц
Битовая глубина : 24 бит
Метод сжатия : С потерями
Размер потока : 1,38 Гбайт (10%)
Заголовок : DTS 5.1 / 1536 kbps
Язык : English
Default : Нет
Forced : Нет
Аудио #5
Идентификатор : 6
Формат : AC-3
Формат/Информация : Audio Coding 3
Расширение режима : CM (complete main)
Параметр Endianness формата : Big
Идентификатор кодека : A_AC3
Продолжительность : 2 ч. 10 м.
Вид битрейта : Постоянный
Битрейт : 192 Кбит/сек
Каналы : 2 канала
Расположение каналов : Front: L R
Частота : 48,0 КГц
Битовая глубина : 16 бит
Метод сжатия : С потерями
Размер потока : 179 Мбайт (1%)
Заголовок : Commentary
Язык : English
Default : Нет
Forced : Нет
Текст #1
Идентификатор : 7
Формат : UTF-8
Идентификатор кодека : S_TEXT/UTF8
Идентификатор кодека/Информация : UTF-8 Plain Text
Заголовок : Forced
Язык : Russian
Default : Да
Forced : Нет
Текст #2
Идентификатор : 8
Формат : UTF-8
Идентификатор кодека : S_TEXT/UTF8
Идентификатор кодека/Информация : UTF-8 Plain Text
Заголовок : Full
Язык : Russian
Default : Нет
Forced : Нет
Текст #3
Идентификатор : 9
Формат : UTF-8
Идентификатор кодека : S_TEXT/UTF8
Идентификатор кодека/Информация : UTF-8 Plain Text
Заголовок : Commentary
Язык : Russian
Default : Нет
Forced : Нет
Текст #4
Идентификатор : 10
Формат : UTF-8
Идентификатор кодека : S_TEXT/UTF8
Идентификатор кодека/Информация : UTF-8 Plain Text
Заголовок : Forced
Язык : Ukrainian
Default : Нет
Forced : Нет
Текст #5
Идентификатор : 11
Формат : UTF-8
Идентификатор кодека : S_TEXT/UTF8
Идентификатор кодека/Информация : UTF-8 Plain Text
Заголовок : Full
Язык : Ukrainian
Default : Нет
Forced : Нет
Текст #6
Идентификатор : 12
Формат : UTF-8
Идентификатор кодека : S_TEXT/UTF8
Идентификатор кодека/Информация : UTF-8 Plain Text
Заголовок : Full
Язык : English
Default : Нет
Forced : Нет
Текст #7
Идентификатор : 13
Формат : UTF-8
Идентификатор кодека : S_TEXT/UTF8
Идентификатор кодека/Информация : UTF-8 Plain Text
Заголовок : SDH
Язык : English
Default : Нет
Forced : Нет
Меню
00:00:00.000 : en:Chapter 1
00:04:52.750 : en:Chapter 2
00:07:55.433 : en:Chapter 3
00:12:12.440 : en:Chapter 4
00:19:04.101 : en:Chapter 5
00:23:47.884 : en:Chapter 6
00:29:47.702 : en:Chapter 7
00:39:46.384 : en:Chapter 8
00:45:56.044 : en:Chapter 9
00:59:19.639 : en:Chapter 10
01:01:56.921 : en:Chapter 11
01:09:24.451 : en:Chapter 12
01:18:41.508 : en:Chapter 13
01:23:52.944 : en:Chapter 14
01:37:55.995 : en:Chapter 15
01:56:18.304 : en:Chapter 16
01:59:38.754 : en:Chapter 17
Скриншоты:

[Цитировать]



Показать сообщения:    

Текущее время: 05-Дек 21:41

Часовой пояс: UTC + 3


Вы не можете начинать темы
Вы не можете отвечать на сообщения
Вы не можете редактировать свои сообщения
Вы не можете удалять свои сообщения
Вы не можете голосовать в опросах
Вы не можете прикреплять файлы к сообщениям
Вы не можете скачивать файлы

!ВНИМАНИЕ!
Сайт не предоставляет электронные версии произведений, а занимается лишь коллекционированием и каталогизацией ссылок, присылаемых и публикуемых на форуме нашими читателями. Если вы являетесь правообладателем какого-либо представленного материала и не желаете, чтобы ссылка на него находилась в нашем каталоге, свяжитесь с нами, и мы незамедлительно удалим ее. Файлы для обмена на трекере предоставлены пользователями сайта, и администрация не несет ответственности за их содержание. Просьба не заливать файлы, защищенные авторскими правами, а также файлы нелегального содержания!