[ Сегодня идет свободное скачивание без начисления Download ]


Статистика раздачи
Нет
 
   
 
Top  
 
 
-Советник / The Counselor - Год выпуска: 2013
Производство: США, Великобритания, Chockstone Pictures, Scott Free Productions, Kanzaman S.A.
Жанр: Триллер, Криминал, Драма
Перевод: Дублированный [Лицензия]
Субтитры: Вшитые отключаемые
Язык субтитров: Русский, Украинский, Английский
Навигация по главам: Есть (28)
Дата мировой премьеры: 25 октября 2013
Дата российской премьеры: 31 октября 2013, «Двадцатый Век Фокс СНГ»
Дата выхода DVD/Blu-Ray релиза: 27 марта 2014, «Двадцатый Век Фокс СНГ»
Режиссер: Ридли Скотт
Продюсер: Майкл Костиган, Марк Хаффам, Кормак МакКарти
Актеры: Майкл Фассбендер, Хавьер Бардем, Брэд Питт, Натали Дормер, Пенелопа Крус, Кэмерон Диаз, Дин Норрис, Джон Легуизамо, Рози Перес, Горан Вишнич
Описание фильма:
Успешный адвокат, стоящий практически на вершине успеха и на пороге собственной свадьбы, из любопытства и, конечно, ради денег соглашается на предложение своего давнего знакомого, имеющего тесные связи с преступным миром, перевезти из Мексики в США партию кокаина стоимостью 20 млн. долл.

Продолжительность: 01:57:14
Качество видео: BDRip-AVC
Видеокодек: MPEG-4 AVC/H.264
Битрейт видео: ~1330 Kbps
Размер кадра: 1024x426
Аудиокодек: AC3 5.1
Битрейт аудио: 448 Kbps

MediaInfo:

Общее
Уникальный идентификатор                 : 240880238243585699585215178173150580558 (0xB537D8ACA6A8764E85EAB9359172CF4E)
Полное имя                               : The.Counselor.2013.BDRip-AVC.1,45GB.mkv
Формат                                   : Matroska
Версия формата                           : Version 4 / Version 2
Размер файла                             : 1,46 Гбайт
Продолжительность                        : 1 ч. 57 м.
Общий поток                              : 1780 Кбит/сек
Название фильма                          : Release for NNM-CLUB
Дата кодирования                         : UTC 2014-02-02 09:30:23
Программа кодирования                    : mkvmerge v6.7.0 ('Back to the Ground') 64bit built on Jan 22 2014 08:47:28
Библиотека кодирования                   : libebml v1.3.0 + libmatroska v1.4.1
Attachment                               : Yes
Видео
Идентификатор                            : 1
Формат                                   : AVC
Формат/Информация                        : Advanced Video Codec
Профиль формата                          : [url=mailto:High@L4.1]High@L4.1[/url]
Параметр CABAC формата                   : Да
Параметр ReFrames формата                : 8 кадров
Идентификатор кодека                     : V_MPEG4/ISO/AVC
Продолжительность                        : 1 ч. 57 м.
Битрейт                                  : 1330 Кбит/сек
Ширина                                   : 1024 пикселя
Высота                                   : 426 пикселей
Соотношение сторон                       : 2,40:1
Режим частоты кадров                     : Постоянный
Частота кадров                           : 23,976 кадра/сек
Цветовое пространство                    : YUV
Субдискретизация насыщенности            : 4:2:0
Битовая глубина                          : 8 бит
Тип развёртки                            : Прогрессивная
Бит/(Пиксели*Кадры)                      : 0.127
Размер потока                            : 1,06 Гбайт (73%)
Заголовок                                : Советник / The Counselor (2013)
Библиотека кодирования                   : x264 core 125 r2208 d9d2288
Настройки программы                      : cabac=1 / ref=8 / deblock=1:-3:-3 / analyse=0x3:0x133 / me=umh / subme=11 / psy=1 / psy_rd=1.00:0.20 / mixed_ref=1 / me_range=32 / chroma_me=1 / trellis=2 / 8x8dct=1 / cqm=0 / deadzone=21,11 / fast_pskip=0 / chroma_qp_offset=-3 / threads=12 / lookahead_threads=2 / sliced_threads=0 / nr=0 / decimate=1 / interlaced=0 / bluray_compat=0 / constrained_intra=0 / bframes=8 / b_pyramid=2 / b_adapt=2 / b_bias=0 / direct=3 / weightb=1 / open_gop=0 / weightp=2 / keyint=250 / keyint_min=23 / scenecut=40 / intra_refresh=0 / rc_lookahead=40 / rc=2pass / mbtree=1 / bitrate=1330 / ratetol=1.0 / qcomp=0.60 / qpmin=0 / qpmax=69 / qpstep=4 / cplxblur=20.0 / qblur=0.5 / ip_ratio=1.40 / aq=2:1.00
Язык                                     : English
Default                                  : Да
Forced                                   : Нет
Аудио
Идентификатор                            : 2
Формат                                   : AC-3
Формат/Информация                        : Audio Coding 3
Расширение режима                        : CM (complete main)
Параметр Endianness формата              : Big
Идентификатор кодека                     : A_AC3
Продолжительность                        : 1 ч. 57 м.
Вид битрейта                             : Постоянный
Битрейт                                  : 448 Кбит/сек
Каналы                                   : 6 каналов
Расположение каналов                     : Front: L C R, Side: L R, LFE
Частота                                  : 48,0 КГц
Битовая глубина                          : 16 бит
Метод сжатия                             : С потерями
Размер потока                            : 376 Мбайт (25%)
Заголовок                                : Профессиональный (полное дублирование) - лицензия | DD 5.1 @ 448 kbps
Язык                                     : Russian
Default                                  : Да
Forced                                   : Нет
Текст #1
Идентификатор                            : 3
Формат                                   : UTF-8
Идентификатор кодека                     : S_TEXT/UTF8
Идентификатор кодека/Информация          : UTF-8 Plain Text
Заголовок                                : full
Язык                                     : Russian
Default                                  : Нет
Forced                                   : Нет
Текст #2
Идентификатор                            : 4
Формат                                   : UTF-8
Идентификатор кодека                     : S_TEXT/UTF8
Идентификатор кодека/Информация          : UTF-8 Plain Text
Заголовок                                : full
Язык                                     : Ukrainian
Default                                  : Нет
Forced                                   : Нет
Текст #3
Идентификатор                            : 5
Формат                                   : UTF-8
Идентификатор кодека                     : S_TEXT/UTF8
Идентификатор кодека/Информация          : UTF-8 Plain Text
Заголовок                                : full
Язык                                     : English
Default                                  : Нет
Forced                                   : Нет
Меню
00:00:00.000                             : en:Chapter 1
00:04:44.701                             : en:Chapter 2
00:07:54.056                             : en:Chapter 3
00:09:49.588                             : en:Chapter 4
00:13:45.532                             : en:Chapter 5
00:20:49.831                             : en:Chapter 6
00:23:53.098                             : en:Chapter 7
00:26:31.715                             : en:Chapter 8
00:34:09.881                             : en:Chapter 9
00:39:30.659                             : en:Chapter 10
00:45:38.402                             : en:Chapter 11
00:48:20.772                             : en:Chapter 12
00:54:04.157                             : en:Chapter 13
00:58:46.272                             : en:Chapter 14
01:00:29.083                             : en:Chapter 15
01:08:26.352                             : en:Chapter 16
01:12:55.162                             : en:Chapter 17
01:17:10.834                             : en:Chapter 18
01:20:23.735                             : en:Chapter 19
01:23:28.795                             : en:Chapter 20
01:25:56.067                             : en:Chapter 21
01:30:28.589                             : en:Chapter 22
01:33:16.132                             : en:Chapter 23
01:38:24.273                             : en:Chapter 24
01:43:28.577                             : en:Chapter 25
01:47:40.662                             : en:Chapter 26
01:49:45.829                             : en:Chapter 27
01:53:11.618                             : en:Chapter 28

[Цитировать]

Топик был перенесен из форума Новинки кинопроката в форум Триллер
Henkok



Показать сообщения:    

Текущее время: 11-Дек 14:59

Часовой пояс: UTC + 3


Вы не можете начинать темы
Вы не можете отвечать на сообщения
Вы не можете редактировать свои сообщения
Вы не можете удалять свои сообщения
Вы не можете голосовать в опросах
Вы не можете прикреплять файлы к сообщениям
Вы не можете скачивать файлы

!ВНИМАНИЕ!
Сайт не предоставляет электронные версии произведений, а занимается лишь коллекционированием и каталогизацией ссылок, присылаемых и публикуемых на форуме нашими читателями. Если вы являетесь правообладателем какого-либо представленного материала и не желаете, чтобы ссылка на него находилась в нашем каталоге, свяжитесь с нами, и мы незамедлительно удалим ее. Файлы для обмена на трекере предоставлены пользователями сайта, и администрация не несет ответственности за их содержание. Просьба не заливать файлы, защищенные авторскими правами, а также файлы нелегального содержания!