[ Сегодня идет свободное скачивание без начисления Download ]


Статистика раздачи
Нет
 
   
 
Top  
 
 
-Риддик / Riddick - -Год выпуска: 2013
Производство: США, Великобритания, Universal Pictures, Radar Pictures, One Race Productions
Жанр: Боевик, Фантастика, Триллер
Перевод: Дублированный (iTunes) + Любительский двухголосый (Paradox, на непереведённые места), Авторский (одноголосый закадровый) А.Гаврилов
Оригинальная звуковая дорожка: английский
Субтитры: Вшитые отключаемые
Язык субтитров: Русский, Английский-Дата мировой премьеры: 4 сентября 2013
Дата российской премьеры: 12 сентября 2013, «Централ Партнершип»
Дата выхода DVD релиза: 6 февраля 2014, «CP Дистрибуция»-Режиссер: Дэвид Туи
Актеры: Вин Дизель, Хорди Молья, Мэтью Нэйбл, Кэти Сакхофф, Дэйв Батиста, Букем Вудбайн, Рауль Трухильо, Конрад Пла, Дэнни Бланко, Карл Урбан, Ноа Дэнби, Нил Напье, Нолан Фанк, Андреас Апергис, Кери Хилсон, Шарли Мари Дюпон, Ян Герсте, Антуанетта Никпрелаж, Александра Соколовская-Описание фильма:
Преданный своими и брошенный умирать на пустынной планете, Риддик сражается с хищниками за жизнь и становится сильнее и опаснее себя прежнего. Открывшие на него охоту галактические наемники оказываются пешками в грандиозном плане отмщения. С врагами, возникающими на его пути тогда, когда это нужно самому Риддику, он начинает поход во имя мести, чтобы в конечном счете вернуться на родную Фурию и спасти ее от уничтожения.- -Продолжительность: 02:06:47
Качество видео: BDRip-Видеокодек: MPEG-4 AVC/H.264
Битрейт видео: ~1568 Kbps
Размер кадра: 1032 х 430
Аудио 1: AC3 5.1, 384 Kbps - Дубляж
Аудио 2: AC3 5.1, 384 Kbps - Авторский (одноголосый закадровый) А.Гаврилов
Аудио 3: AC3 5.1, 448 Kbps - оригинал
Сэмпл: Скачать

Дополнительная информация

Рип от potroks
Сборка контейнера с дорожкой А. Гаврилова FAGOT100
За перевод Гаврилова большое спасибо пользователям форума hdtracker:
rydanes, kinobbk, chef&chef, Denis2251, Hattori Hanzo, Loki, _MyxAmoP_, Letyoha3, Brown15, Luka69, Gross1978, Skibichok, foxlight, GaryH, milocerd0v, -Джосс-, Pain_70, KerkP, SavineX, karantin66, ZeRoNe, GansAn, mamachucha66, v111o, kondratzx, TvarYuri, Vimann, Wolf_Larsen, furria62, dunhill200, Chistobaev, lexal, Guyver, apollion, Role, banan87, LAVR, Tio, maximus1099, hulahup, Shumway, Tehnar, Jiraya87, nimph, Видео, dark1982, shtift, carter64, vadamk, zork, feldeger, sawyer4, Андрей, AndreyTula, rammzez, Consul, Диммон, therox, saenwert, Schmulke, Ace34, olegsoleg, spacenoise, anvic, Slimka, DrCrane, Gangster, Floydman, Iron Man, TOMAN, denis_mgn_1987, DB73 .

MediaInfo

Format : Matroska
Format version : Version 2
File size : 2.47 GiB
Duration : 2h 6mn
Overall bit rate : 2 786 Kbps
Encoded date : UTC 2014-02-02 09:00:45
Writing application : mkvmerge v5.3.0 ('I could have danced') built on Feb 9 2012 10:38:07
Writing library : libebml v1.2.3 + libmatroska v1.3.0
Attachment : Yes
Video
ID : 1
Format : AVC
Format/Info : Advanced Video Codec
Format profile : High@L4.1
Format settings, CABAC : Yes
Format settings, ReFrames : 10 frames
Codec ID : V_MPEG4/ISO/AVC
Duration : 2h 6mn
Bit rate : 1 568 Kbps
Width : 1 032 pixels
Height : 430 pixels
Display aspect ratio : 2.40:1
Frame rate mode : Constant
Frame rate : 23.976 fps
Color space : YUV
Chroma subsampling : 4:2:0
Bit depth : 8 bits
Scan type : Progressive
Bits/(Pixel*Frame) : 0.147
Stream size : 1.34 GiB (54%)
Title : Riddick
Writing library : x264 core 130 r2273 b3065e6
Encoding settings : cabac=1 / ref=10 / deblock=1:-3:-2 / analyse=0x3:0x133 / me=umh / subme=11 / psy=1 / psy_rd=1.09:0.01 / mixed_ref=1 / me_range=48 / chroma_me=1 / trellis=2 / 8x8dct=1 / cqm=0 / deadzone=21,11 / fast_pskip=0 / chroma_qp_offset=-3 / threads=9 / lookahead_threads=6 / sliced_threads=0 / nr=0 / decimate=0 / interlaced=0 / bluray_compat=0 / constrained_intra=0 / bframes=11 / b_pyramid=2 / b_adapt=2 / b_bias=0 / direct=3 / weightb=1 / open_gop=0 / weightp=2 / keyint=250 / keyint_min=23 / scenecut=40 / intra_refresh=0 / rc_lookahead=60 / rc=2pass / mbtree=0 / bitrate=1568 / ratetol=1.0 / qcomp=0.70 / qpmin=0 / qpmax=69 / qpstep=4 / cplxblur=20.0 / qblur=0.5 / vbv_maxrate=20000 / vbv_bufsize=20000 / nal_hrd=none / ip_ratio=1.35 / pb_ratio=1.25 / aq=1:0.80
Language : English
Default : Yes
Forced : No
Audio #1
ID : 2
Format : AC-3
Format/Info : Audio Coding 3
Mode extension : CM (complete main)
Format settings, Endianness : Big
Codec ID : A_AC3
Duration : 2h 6mn
Bit rate mode : Constant
Bit rate : 384 Kbps
Channel(s) : 6 channels
Channel positions : Front: L C R, Side: L R, LFE
Sampling rate : 48.0 KHz
Bit depth : 16 bits
Compression mode : Lossy
Stream size : 348 MiB (14%)
Title : Dud | DD 5.1 @ 384 kbps - iTunes
Language : Russian
Default : Yes
Forced : Yes
Audio #2
ID : 3
Format : AC-3
Format/Info : Audio Coding 3
Mode extension : CM (complete main)
Format settings, Endianness : Big
Codec ID : A_AC3
Duration : 2h 6mn
Bit rate mode : Constant
Bit rate : 384 Kbps
Channel(s) : 6 channels
Channel positions : Front: L C R, Side: L R, LFE
Sampling rate : 48.0 KHz
Bit depth : 16 bits
Compression mode : Lossy
Stream size : 348 MiB (14%)
Title : Авторский А.Гаврилов | DD 5.1 @ 384 kbps
Language : Russian
Default : No
Forced : No
Audio #3
ID : 4
Format : AC-3
Format/Info : Audio Coding 3
Mode extension : CM (complete main)
Format settings, Endianness : Big
Codec ID : A_AC3
Duration : 2h 6mn
Bit rate mode : Constant
Bit rate : 448 Kbps
Channel(s) : 6 channels
Channel positions : Front: L C R, Side: L R, LFE
Sampling rate : 48.0 KHz
Bit depth : 16 bits
Compression mode : Lossy
Stream size : 406 MiB (16%)
Title : Original | DD 5.1 @ 448 kbps
Language : English
Default : No
Forced : No
Text #1
ID : 5
Format : UTF-8
Codec ID : S_TEXT/UTF8
Codec ID/Info : UTF-8 Plain Text
Language : Russian
Default : No
Forced : No
Text #2
ID : 6
Format : UTF-8
Codec ID : S_TEXT/UTF8
Codec ID/Info : UTF-8 Plain Text
Title : SDH
Language : English
Default : No
Forced : No
Text #3
ID : 7
Format : UTF-8
Codec ID : S_TEXT/UTF8
Codec ID/Info : UTF-8 Plain Text
Title : SDH-Colored
Language : English
Default : No
Forced : No
Menu
00:00:00.000 : en:(01)00:00:00:000
00:05:35.418 : en:(02)00:05:35:418
00:12:10.521 : en:(03)00:12:10:521
00:23:27.364 : en:(04)00:23:27:364
00:27:56.424 : en:(05)00:27:56:424
00:32:11.220 : en:(06)00:32:11:220
00:38:03.698 : en:(07)00:38:03:698
00:44:20.282 : en:(08)00:44:20:282
00:48:40.876 : en:(09)00:48:40:876
00:56:19.667 : en:(10)00:56:19:667
01:01:16.672 : en:(11)01:01:16:672
01:07:35.092 : en:(12)01:07:35:092
01:15:23.435 : en:(13)01:15:23:435
01:19:58.835 : en:(14)01:19:58:835
01:26:51.831 : en:(15)01:26:51:831
01:31:27.106 : en:(16)01:31:27:106
01:39:32.716 : en:(17)01:39:32:716
01:45:32.701 : en:(18)01:45:32:701
01:53:45.652 : en:(19)01:53:45:652
02:02:56.160 : en:(20)02:02:56:160
02:06:47.391 : en:(21)02:06:47:391

[Цитировать]



Показать сообщения:    

Текущее время: 09-Дек 20:18

Часовой пояс: UTC + 3


Вы не можете начинать темы
Вы не можете отвечать на сообщения
Вы не можете редактировать свои сообщения
Вы не можете удалять свои сообщения
Вы не можете голосовать в опросах
Вы не можете прикреплять файлы к сообщениям
Вы не можете скачивать файлы

!ВНИМАНИЕ!
Сайт не предоставляет электронные версии произведений, а занимается лишь коллекционированием и каталогизацией ссылок, присылаемых и публикуемых на форуме нашими читателями. Если вы являетесь правообладателем какого-либо представленного материала и не желаете, чтобы ссылка на него находилась в нашем каталоге, свяжитесь с нами, и мы незамедлительно удалим ее. Файлы для обмена на трекере предоставлены пользователями сайта, и администрация не несет ответственности за их содержание. Просьба не заливать файлы, защищенные авторскими правами, а также файлы нелегального содержания!