[ Сегодня идет свободное скачивание без начисления Download ]


Статистика раздачи
Нет
 
   
 
Top  
 
 
-Гравитация / Gravity (2013) WEB-DLRip--«Не отпускай»- Год выпуска: 2013
Производство: США, Warner Bros., Esperanto Filmoj, Heyday Films
Жанр: Фантастика, Триллер, Драма
Перевод: Дублированный (Чистый звук)
Субтитры: Отсутствуют
Дата мировой премьеры: 28 августа 2013
Дата российской премьеры: 3 октября 2013, «Каро-Премьер»
Дата украинской премьеры: 3 октября 2013, «Киномания»
Дата выхода DVD / Blu-Ray релиза: 21 февраля 2014, «CP Дистрибуция»
Режиссер: Альфонсо Куарон
Продюсер: Альфонсо Куарон, Дэвид Хейман, Кристофер ДеФариа
Актеры: Сандра Буллок, Джордж Клуни, Эд Харрис, Орто Игнатиуссен, Пол Шарма, Эми Уоррен, Башер Саваж, Дженис Ахерн
Описание фильма:
Доктор Райан Стоун, блестящий специалист в области медицинского инжиниринга, отправляется в свою первую космическую миссию под командованием ветерана астронавтики Мэтта Ковальски, для которого этот полет - последний перед отставкой. Но во время, казалось бы, рутинной работы за бортом случается катастрофа.
Шаттл уничтожен, а Стоун и Ковальски остаются совершенно одни; они находятся в связке друг с другом, и все, что они могут, - это двигаться по орбите в абсолютно черном пространстве без всякой связи с Землей и какой-либо надежды на спасение.

Продолжительность: 01:30:56
Качество видео: WEB-DLRip
Видеокодек: Xvid
Битрейт видео: ~951 kbps avg, 0.181 bit/pixel
Размер кадра: 720x304 (2.37:1), 23.976 fps, 0,478 bit/pixel
Аудиокодек: AC3 Dolby Digital, 2.0
Битрейт аудио: 192.00 kbps avg, 48 kHz, 2 channels

MediaInfo

Общее
Полное имя : Gravitacija.2013.WEB-DLRip.avi
Формат : AVI
Формат/Информация : Audio Video Interleave
Размер файла : 749 Мбайт
Продолжительность : 1 ч. 30 м.
Общий поток : 1151 Кбит/сек
Видео
Идентификатор : 0
Формат : MPEG-4 Visual
Профиль формата : Advanced Simple@L5
Параметр BVOP формата : 1
Параметр QPel формата : Нет
Параметр GMC формата : Без точки перехода
Параметр матрицы формата : Default (MPEG)
Идентификатор кодека : XVID
Идентификатор кодека/Подсказка : XviD
Продолжительность : 1 ч. 30 м.
Битрейт : 952 Кбит/сек
Ширина : 720 пикс.
Высота : 304 пикс.
Соотношение сторон : 2,35:1
Частота кадров : 23,976 кадр/сек
Цветовое пространство : YUV
Подвыборка цветности : 4:2:0
Битовая глубина : 8 бит
Тип развёртки : Прогрессивная
Метод сжатия : С потерями
Бит/(Пиксели*Кадры) : 0.181
Размер потока : 619 Мбайт (83%)
Библиотека кодирования : XviD 73
Аудио
Идентификатор : 1
Формат : AC-3
Формат/Информация : Audio Coding 3
Расширение режима : CM (complete main)
Идентификатор кодека : 2000
Продолжительность : 1 ч. 30 м.
Вид битрейта : Постоянный
Битрейт : 192 Кбит/сек
Канал(ы) : 2 канала(ов)
Расположение каналов : Front: L R
Частота : 48,0 КГц
Битовая глубина : 16 бит
Метод сжатия : С потерями
Размер потока : 125 Мбайт (17%)
Выравнивание : Соединение по промежуткам
Продолжительность промежутка : 64 мс. (1,53 видеокадров)
Время предзагрузки промежутка : 512 ms
Заголовок : Gravitacija.2013.WEB-DLRip
Скриншоты:
[th]http://img.torrentsclub.org/di/FTV2/4a1fada0d08c2e3...6071bab.jpg[/th] [th]http://img.torrentsclub.org/di/NQLX/728e49176bb1e13...f8c1338.jpg[/th] [th]http://img.torrentsclub.org/di/RNEO/678583fb8dff45b...efecacb.jpg[/th]
Время раздачи: 24/7 до 5 скачавших

[Цитировать]



Показать сообщения:    

Текущее время: 09-Дек 16:29

Часовой пояс: UTC + 3


Вы не можете начинать темы
Вы не можете отвечать на сообщения
Вы не можете редактировать свои сообщения
Вы не можете удалять свои сообщения
Вы не можете голосовать в опросах
Вы не можете прикреплять файлы к сообщениям
Вы не можете скачивать файлы

!ВНИМАНИЕ!
Сайт не предоставляет электронные версии произведений, а занимается лишь коллекционированием и каталогизацией ссылок, присылаемых и публикуемых на форуме нашими читателями. Если вы являетесь правообладателем какого-либо представленного материала и не желаете, чтобы ссылка на него находилась в нашем каталоге, свяжитесь с нами, и мы незамедлительно удалим ее. Файлы для обмена на трекере предоставлены пользователями сайта, и администрация не несет ответственности за их содержание. Просьба не заливать файлы, защищенные авторскими правами, а также файлы нелегального содержания!