[ Сегодня идет свободное скачивание без начисления Download ]


Статистика раздачи
Нет
 
   
 
Top  
 
 
-Кандалы / Belenggu (2013) WEB-DLRip- Год выпуска: 2013
Производство: Индонезия / Falcon Pictures
Жанр: Ужасы
Перевод:Двухголосый закадровый, любительский
Озвучка / Автор перевода: den904 & DeadSno
Субтитры: Вшитые не отключаемые
Язык субтитров: Aнглийский
Дата мировой премьеры: 28 февраля 2013
Режиссер: Upi Avianto
Актеры: Имельда Теринн, Верди Солайман, Арсвенди Насутион, Т. Рифну Викана, Белла Эсперанс, Аврилла
Описание фильма:
В небольшом городишке орудует серийный убийца, которого никак не может поймать полиция. Жители города в панике и всеми овладевает паранойя...они не осознают, что убийцей может быть самый тихий и неприметный из них, ведь в тихом омуте - черти водятся, а за молчанием, вежливостью и углубленностью в себя скрываются страшные тайны. Главный герой фильма, Эланг - мрачный молодой мужчина, живущий в этом городе, пойдет по следу кролика, чтобы узнать, кто же тот страшный убийца.
Продолжительность: 01:35:47
Качество видео: WEB-DLRip
Видеокодек: Xvid
Битрейт видео: ~1780 Kbit/s
Размер кадра: 720 x 304
Аудиокодек: AC3 2.0
Битрейт аудио: 256 Kbit/s

MediaInfo

Общее
Полное имя                       : D:\Торренты\Кандалы.2013.WEB-DLRip.avi
Формат                           : AVI
Формат/Информация                : Audio Video Interleave
Размер файла                     : 1,37 Гбайт
Продолжительность                : 1 ч. 35 м.
Общий поток                      : 2046 Кбит/сек
Программа кодирования            : VirtualDubMod 1.5.10.3 (build 2550/release)
Библиотека кодирования           : VirtualDubMod build 2550/release
Видео
Идентификатор                    : 0
Формат                           : MPEG-4 Visual
Профиль формата                  : Advanced [email protected]
Параметр BVOP формата            : Нет
Параметр QPel формата            : Нет
Параметр GMC формата             : Без точки перехода
Параметр матрицы формата         : Default (MPEG)
Идентификатор кодека             : XVID
Идентификатор кодека/Подсказка   : XviD
Продолжительность                : 1 ч. 35 м.
Битрейт                          : 1780 Кбит/сек
Ширина                           : 720 пикс.
Высота                           : 304 пикс.
Соотношение сторон               : 2,35:1
Частота кадров                   : 25,000 кадр/сек
Цветовое пространство            : YUV
Подвыборка цветности             : 4:2:0
Битовая глубина                  : 8 бит
Тип развёртки                    : Прогрессивная
Метод сжатия                     : С потерями
Бит/(Пиксели*Кадры)              : 0.325
Размер потока                    : 1,19 Гбайт (87%)
Библиотека кодирования           : XviD 62
Аудио
Идентификатор                    : 1
Формат                           : AC-3
Формат/Информация                : Audio Coding 3
Расширение режима                : CM (complete main)
Идентификатор кодека             : 2000
Продолжительность                : 1 ч. 35 м.
Вид битрейта                     : Постоянный
Битрейт                          : 256 Кбит/сек
Каналы                           : 2 канала
Расположение каналов             : Front: L R
Частота                          : 48,0 КГц
Битовая глубина                  : 16 бит
Метод сжатия                     : С потерями
Размер потока                    : 175 Мбайт (13%)
Выравнивание                     : Разделение по промежуткам
Продолжительность промежутка     : 40  мс. (1,00 видеокадр)
Время предзагрузки промежутка    : 500 ms
[th]http://img.torrentsclub.org/di/1HVG/93bc3f9a9915bfa...a60700a.jpg[/th] [th]http://img.torrentsclub.org/di/3APW/1635e263643c368...52b17a4.jpg[/th] [th]http://img.torrentsclub.org/di/UDCN/bf724fbf1d6048f...5339ad4.jpg[/th] [th]http://img.torrentsclub.org/di/IXBR/fed018a0a85121e...fa46968.jpg[/th]Время раздачи: 24/7 по возможности

[Цитировать]

Топик был перенесен из форума Новинки кинопроката в форум Ужасы
Henkok



Показать сообщения:    

Текущее время: 04-Дек 15:19

Часовой пояс: UTC + 3


Вы не можете начинать темы
Вы не можете отвечать на сообщения
Вы не можете редактировать свои сообщения
Вы не можете удалять свои сообщения
Вы не можете голосовать в опросах
Вы не можете прикреплять файлы к сообщениям
Вы не можете скачивать файлы

!ВНИМАНИЕ!
Сайт не предоставляет электронные версии произведений, а занимается лишь коллекционированием и каталогизацией ссылок, присылаемых и публикуемых на форуме нашими читателями. Если вы являетесь правообладателем какого-либо представленного материала и не желаете, чтобы ссылка на него находилась в нашем каталоге, свяжитесь с нами, и мы незамедлительно удалим ее. Файлы для обмена на трекере предоставлены пользователями сайта, и администрация не несет ответственности за их содержание. Просьба не заливать файлы, защищенные авторскими правами, а также файлы нелегального содержания!