[ Сегодня идет свободное скачивание без начисления Download ]


Статистика раздачи
Нет
 
   
 
Top  
 
 
-Тор 2: Царство тьмы / Thor: The Dark World (2013) WEB-DLRip- Год выпуска: 2013
Производство: США / Marvel Entertainment, Marvel Studios Inc.
Жанр: Фэнтези, боевик, приключения
Перевод: Дублированный [Чистый звук]
Субтитры: Вшитые неотключаемые
Язык субтитров: Русский (на речь Эльфов)
Дата мировой премьеры: 30 октября 2013
Дата российской премьеры: 7 ноября 2013, «WDSSPR»
Дата выхода DVD релиза: 25 февраля 2014, «Уолт Дисней Компани СНГ»
Режиссер: Алан Тейлор
Продюсер: Кевин Файги, Виктория Алонсо, Луис Д’Эспозито
Актеры: Крис Хемсворт, Натали Портман, Том Хиддлстон, Энтони Хопкинс, Кристофер Экклстон, Джейми Александер, Закари Левай, Рэй Стивенсон, Таданобу Асано, Идрис Эльба, Рене Руссо, Адевале Акинойе-Агбаже, Кэт Деннингс, Элис Крайдж, Клайв Расселл ...
Описание фильма:
Продолжение приключений одного из членов команды Мстителей, скандинавского бога Тора, которому на этот раз в одиночку предстоит защитить Землю и все девять миров от нашествия неизвестного врага.
Могучему Тору предстоит вновь сразиться за восстановление порядка в галактике, встретившись лицом к лицу с древней инопланетной расой, ведомой злодеем Малекитом, жаждущим установить в девяти мирах власть тьмы. Столкнувшись с врагом, более могущественным чем сам Один и всё воинство Асгарда, Тор должен собрать силы для решающей битвы. Его ждёт опасное путешествие и долгожданная встреча со своей земной возлюбленной Джейн Фостер. Сможет ли Тор рискнуть самым дорогим, чтобы не дать тьме воцариться на просторах вселенной?
Продолжительность: 01:52:04
Качество видео: WEB-DLRip
Видеокодек: Xvid
Битрейт видео: ~801 Kbps
Размер кадра: 640x272
Аудиокодек: MP3 2.0
Битрейт аудио: 128 Kbps

MediaInfo:

General
Complete name                            : E:\Фильмы\Tor.2.Tsarstvo.tmy.2013.D.WEB-DLRip.avi
Format                                   : AVI
Format/Info                              : Audio Video Interleave
File size                                : 750 MiB
Duration                                 : 1h 52mn
Overall bit rate                         : 936 Kbps
Writing application                      : VirtualDubMod 1.5.4.1 (build 2178/release)
Writing library                          : VirtualDubMod build 2178/release
Video
ID                                       : 0
Format                                   : MPEG-4 Visual
Format profile                           : Advanced Simple@L5
Format settings, BVOP                    : 1
Format settings, QPel                    : No
Format settings, GMC                     : No warppoints
Format settings, Matrix                  : Custom
Codec ID                                 : XVID
Codec ID/Hint                            : XviD
Duration                                 : 1h 52mn
Bit rate                                 : 801 Kbps
Width                                    : 640 pixels
Height                                   : 272 pixels
Display aspect ratio                     : 2.35:1
Frame rate                               : 23.976 fps
Color space                              : YUV
Chroma subsampling                       : 4:2:0
Bit depth                                : 8 bits
Scan type                                : Progressive
Compression mode                         : Lossy
Bits/(Pixel*Frame)                       : 0.192
Stream size                              : 642 MiB (86%)
Writing library                          : XviD 64
Audio
ID                                       : 1
Format                                   : MPEG Audio
Format version                           : Version 1
Format profile                           : Layer 3
Mode                                     : Joint stereo
Mode extension                           : MS Stereo
Codec ID                                 : 55
Codec ID/Hint                            : MP3
Duration                                 : 1h 52mn
Bit rate mode                            : Constant
Bit rate                                 : 128 Kbps
Channel(s)                               : 2 channels
Sampling rate                            : 48.0 KHz
Compression mode                         : Lossy
Stream size                              : 103 MiB (14%)
Alignment                                : Aligned on interleaves
Interleave, duration                     : 83 ms (2.00 video frames)
Interleave, preload duration             : 504 ms
Writing library                          : LAME3.98r
Encoding settings                        : -m j -V 4 -q 2 -lowpass 17 -b 128
Скриншоты:
[th]http://img.torrentsclub.org/di/8KHY/48c7e0c7d89f.jpg[/th] [th]http://img.torrentsclub.org/di/4QIA/49eeff3c0bca.jpg[/th] [th]http://img.torrentsclub.org/di/2Z9L/84ba11f7eb1c.jpg[/th] [th]http://img.torrentsclub.org/di/BWB6/fc7d20365959.jpg[/th]
Время раздачи: Круглосуточно (До 5-ти скачавших)

[Цитировать]



Показать сообщения:    

Текущее время: 08-Дек 01:19

Часовой пояс: UTC + 3


Вы не можете начинать темы
Вы не можете отвечать на сообщения
Вы не можете редактировать свои сообщения
Вы не можете удалять свои сообщения
Вы не можете голосовать в опросах
Вы не можете прикреплять файлы к сообщениям
Вы не можете скачивать файлы

!ВНИМАНИЕ!
Сайт не предоставляет электронные версии произведений, а занимается лишь коллекционированием и каталогизацией ссылок, присылаемых и публикуемых на форуме нашими читателями. Если вы являетесь правообладателем какого-либо представленного материала и не желаете, чтобы ссылка на него находилась в нашем каталоге, свяжитесь с нами, и мы незамедлительно удалим ее. Файлы для обмена на трекере предоставлены пользователями сайта, и администрация не несет ответственности за их содержание. Просьба не заливать файлы, защищенные авторскими правами, а также файлы нелегального содержания!