[ Сегодня идет свободное скачивание без начисления Download ]


Статистика раздачи
Нет
 
   
 
Top  
 
 
-Довольно слов / Enough Said (2013) HDRip- Год выпуска: 2013
Производство: США, Fox Searchlight Pictures
Жанр: Драма, Мелодрама, Комедия
Перевод: Дублированный | iTunes Russia|
Субтитры: Отсутствуют
Дата мировой премьеры: 7 сентября 2013
Дата российской премьеры: 20 февраля 2014, «Двадцатый Век Фокс СНГ»
Дата выхода DVD релиза: 20 февраля 2014, «Двадцатый Век Фокс СНГ»
Режиссер: Николь Холофсенер
Продюсер: Стефани Аспиазу, Энтони Брегман, Крисанн Верджес
Актеры: Джулия Луис-Дрейфус, Джеймс Гандольфини, Кэтрин Кинер, Тони Коллетт, Бен Фэлкуон, Ленни Лофтин, Джессика Ст. Клэр, Кристофер Николас Смит, Трэйси Фэирэуэй, Михаэлла Уоткинс
Описание фильма:
Главные роли в этой трогательной романтической комедии от режиссера сериалов «Секс в Большом городе» и «Клиент всегда мертв» исполнили Джеймс Гандольфини, Джулия Луис-Дрейфус и Кэтрин Кинер. После развода Ева (Луис-Дрейфус) знакомится с очаровательным, веселым и тоже разведенным Альбертом (Гандольфини). Пока их отношения развиваются, Ева начинает теснее общаться с Марианной (Кинер), которая не устает жаловаться на своего бывшего мужа. Однако узнав, что Альберт и есть тот самый несносный бывший, Ева задумывается, не пора ли ей изменить свои представления о первом впечатлении и… втором шансе.
Продолжительность: 01:32:59
Качество видео: HDRip
Видеокодек: XviD
Битрейт видео: 1711 kb/s
Размер кадра: 720x384
Аудиокодек: AC3 5.1
Битрейт аудио: 384 kb/s

Награды

Золотой глобус, 2014 год
Номинации (1):
  • Лучшая женская роль (комедия или мюзикл) (Джулия Луис-Дрейфус)

MI

Общее
Полное имя                               : D:\Раздачи\Dovolno.Slov.2013.HDRip.NNM-CLUB.avi
Формат                                   : AVI
Формат/Информация                        : Audio Video Interleave
Размер файла                             : 1,37 Гбайт
Продолжительность                        : 1 ч. 32 м.
Общий поток                              : 2104 Кбит/сек
Программа кодирования                    : VirtualDubMod 1.5.10.2 (build 2540/release)
Библиотека кодирования                   : VirtualDubMod build 2540/release
Видео
Идентификатор                            : 0
Формат                                   : MPEG-4 Visual
Профиль формата                          : Advanced [email protected]
Параметр BVOP формата                    : 2
Параметр QPel формата                    : Нет
Параметр GMC формата                     : Без точки перехода
Параметр матрицы формата                 : Выборочная
Идентификатор кодека                     : XVID
Идентификатор кодека/Подсказка           : XviD
Продолжительность                        : 1 ч. 32 м.
Продолжительность оригинала              : 12 м.
Битрейт                                  : 1711 Кбит/сек
Ширина                                   : 720 пикселей
Высота                                   : 384 пикселя
Соотношение сторон                       : 1,85:1
Частота кадров                           : 23,976 кадра/сек
Цветовое пространство                    : YUV
Субдискретизация насыщенности            : 4:2:0
Битовая глубина                          : 8 бит
Тип развёртки                            : Прогрессивная
Метод сжатия                             : С потерями
Бит/(Пиксели*Кадры)                      : 0.251
Размер потока                            : 146 Мбайт (10%)
Библиотека кодирования                   : XviD 1.2.1 (UTC 2008-12-04)
Аудио
Идентификатор                            : 1
Формат                                   : AC-3
Формат/Информация                        : Audio Coding 3
Расширение режима                        : CM (complete main)
Параметр Endianness формата              : Big
Идентификатор кодека                     : 2000
Продолжительность                        : 1 ч. 32 м.
Продолжительность оригинала              : 12 м.
Вид битрейта                             : Постоянный
Битрейт                                  : 384 Кбит/сек
Каналы                                   : 6 каналов
Расположение каналов                     : Front: L C R, Side: L R, LFE
Частота                                  : 48,0 КГц
Битовая глубина                          : 16 бит
Метод сжатия                             : С потерями
Размер потока                            : 33,7 Мбайт (2%)
Выравнивание                             : Разделение по промежуткам
Продолжительность промежутка             : 42  мс. (1,00 видеокадр)
Время предзагрузки промежутка            : 500  мс.
Скриншоты:[th]http://img.torrentsclub.org/di/K5LT/e3ObLdp.png[/th] [th]http://img.torrentsclub.org/di/VMQC/rbSJiRw.png[/th] [th]http://img.torrentsclub.org/di/XKKC/wWQ8LMZ.png[/th]Время раздачи: 24/7,
до 5 скачавших.

[Цитировать]



Показать сообщения:    

Текущее время: 05-Дек 03:34

Часовой пояс: UTC + 3


Вы не можете начинать темы
Вы не можете отвечать на сообщения
Вы не можете редактировать свои сообщения
Вы не можете удалять свои сообщения
Вы не можете голосовать в опросах
Вы не можете прикреплять файлы к сообщениям
Вы не можете скачивать файлы

!ВНИМАНИЕ!
Сайт не предоставляет электронные версии произведений, а занимается лишь коллекционированием и каталогизацией ссылок, присылаемых и публикуемых на форуме нашими читателями. Если вы являетесь правообладателем какого-либо представленного материала и не желаете, чтобы ссылка на него находилась в нашем каталоге, свяжитесь с нами, и мы незамедлительно удалим ее. Файлы для обмена на трекере предоставлены пользователями сайта, и администрация не несет ответственности за их содержание. Просьба не заливать файлы, защищенные авторскими правами, а также файлы нелегального содержания!