[ Сегодня идет свободное скачивание без начисления Download ]


Статистика раздачи
Нет
 
   
 
 
 
-Топ Гир / Top Gear-
Год выпуска: 2013
Страна: Великобритания
Жанр: Авто-шоу,документальный, ток-шоу, комедия.
Продолжительность: 01:02:12
Перевод: Перевод #1: Многоголосый закадровый - Gears Media
Перевод #2: Многоголосый закадровый - Jetvis Studio & RG.paravozik

Субтитры: есть Русские(две версии 4-6 эпизод) и Английские
Режиссер:Брайан Клейн, Фил Чурчуорд, Найджел Симпкисс, ...
Продюсер: Энди Уилман, Алекс Рентон, Грант Уордроп, ...
Композитор: Кристиан Хенсон
Художник: Джонатан Пол Грин, Джеймс Роуэлл, Саймон Киммел
Монтаж: Дэн Джеймс, Гай Савин, Джеймс Харт
В ролях: Ричард Хаммонд / Richard Hammond (играет самого себя - Presenter), Джереми Кларксон / Jeremy Clarkson (играет самого себя - Presenter), Джеймс Мэй / James May (играет самого себя - Presenter) , Бен Коллинз / Ben Collins (The Stig), Стиг / The Stig (играет самого себя), Перри МакКарти / Perry McCarthy (The Stig), Джейсон Дейв / Jason Dawe (играет самого себя - Presenter), Энди Уилман / Andy Wilman (играет самого себя - ведущий)

Описание: Джереми, Ричард и Джеймс с неподражаемым юмором рассказывают о самых значимых и интересных новинках автомобильного мира.-- Сэмпл--Качество: HDTVRip
Формат: AVI

Видео кодек: XviD
Аудио кодеk: MP3
Видео: 624x352 (16:9), 25.000 fps, XviD 73, 986 Kbps
Аудио: Аудио #1: MP3, 128 Kbps, 48.0 KHz, 2 ch -Gears Media
Аудио #2: MP3, 128 Kbps, 48.0 KHz, 2 ch -Jetvis Studio & RG.paravozik
Аудио #3: MP3, 128 Kbps, 48.0 KHz, 2 ch -Eng

МедиаИнфо

General
General
Complete name                       : E:\Top Gear 20\Top.Gear.20x01.avi
Format                              : AVI
Format/Info                         : Audio Video Interleave
File size                           : 624 MiB
Duration                            : 1h 2mn
Overall bit rate                    : 1 389 Kbps
Writing application                 : VirtualDubMod 1.5.10.3 | www.virtualdub-fr.org || (build 2550/release)
Writing library                     : VirtualDubMod build 2550/release
Video
ID                                  : 0
Format                              : MPEG-4 Visual
Format profile                      : Advanced Simple@L5
Format settings, BVOP               : 1
Format settings, QPel               : No
Format settings, GMC                : No warppoints
Format settings, Matrix             : Default (H.263)
Codec ID                            : XVID
Codec ID/Hint                       : XviD
Duration                            : 1h 2mn
Bit rate                            : 986 Kbps
Width                               : 624 pixels
Height                              : 352 pixels
Display aspect ratio                : 16:9
Frame rate                          : 25.000 fps
Color space                         : YUV
Chroma subsampling                  : 4:2:0
Bit depth                           : 8 bits
Scan type                           : Progressive
Compression mode                    : Lossy
Bits/(Pixel*Frame)                  : 0.179
Stream size                         : 443 MiB (71%)
Writing library                     : XviD 73
Audio #1
ID                                  : 1
Format                              : MPEG Audio
Format version                      : Version 1
Format profile                      : Layer 3
Mode                                : Joint stereo
Codec ID                            : 55
Codec ID/Hint                       : MP3
Duration                            : 1h 2mn
Bit rate mode                       : Constant
Bit rate                            : 128 Kbps
Channel(s)                          : 2 channels
Sampling rate                       : 48.0 KHz
Compression mode                    : Lossy
Stream size                         : 57.4 MiB (9%)
Alignment                           : Aligned on interleaves
Interleave, duration                : 40 ms (1.00 video frame)
Interleave, preload duration        : 504 ms
Audio #2
ID                                  : 2
Format                              : MPEG Audio
Format version                      : Version 1
Format profile                      : Layer 3
Mode                                : Joint stereo
Mode extension                      : MS Stereo
Codec ID                            : 55
Codec ID/Hint                       : MP3
Duration                            : 1h 2mn
Bit rate mode                       : Constant
Bit rate                            : 128 Kbps
Channel(s)                          : 2 channels
Sampling rate                       : 48.0 KHz
Compression mode                    : Lossy
Stream size                         : 57.5 MiB (9%)
Alignment                           : Aligned on interleaves
Interleave, duration                : 40 ms (1.00 video frame)
Interleave, preload duration        : 504 ms
Writing library                     : LAME3.99r
Encoding settings                   : -m j -V 4 -q 3 -lowpass 17 -b 128
Audio #3
ID                                  : 3
Format                              : MPEG Audio
Format version                      : Version 1
Format profile                      : Layer 3
Codec ID                            : 55
Codec ID/Hint                       : MP3
Duration                            : 1h 2mn
Bit rate mode                       : Constant
Bit rate                            : 128 Kbps
Channel(s)                          : 2 channels
Sampling rate                       : 48.0 KHz
Compression mode                    : Lossy
Stream size                         : 57.5 MiB (9%)
Alignment                           : Aligned on interleaves
Interleave, duration                : 40 ms (1.00 video frame)
Interleave, preload duration        : 504 ms
Writing library                     : LAME3.99r
Encoding settings                   : -m s -V 4 -q 2 -lowpass 17 -b 128

Эпизод 1

- Дата эфира: 30.06.2013
Продолжительность: 01:02:51
Размер файла: 624 Мб-Описание:
• Ричард Хаммонд и три горячих хэтчбека: Ford Fiesta ST, Peugeot 208 GTi и Renaultsport Clio 200.
• Спортивный катамаран против Toyota Auris — гонка в Новой Зеландии между Джереми Кларксоном и Джеймсом Мэем.
• Новый бюджетный автомобиль Top Gear. Для установки первых рекордов на трек приглашены местные знаменитости: Чарльз Дэнс, Уорик Дэвис, Рэйчел Райли, Джосс Стоун.

Эпизод 2

- Дата эфира: 07.07.2013
Продолжительность: 01:01:10
Размер файла: 631 Мб-Описание:
• Ferrari F12 Berlinetta, обзор Джереми Кларксона с дорог Шотландии.
• Ричард Хаммонд определяет лучшее в мире такси при помощи мотоспорта.
• Джеймс Мэй прощается с телецентром «Би-Би-Си», устроив гонку — паркур против мотоцикла.
• BAC Mono, трековый спорткар на трассе Top Gear.
• Знаменитость в бюджетном авто: Рон Ховард, американский кинорежиссер («Игры разума», «Код да Винчи»).

Эпизод 3

- Дата эфира: 14.07.2013
Продолжительность: 01:02:30
Размер файла: 629 Мб-Описание:
• Путешествие в Испанию на трех суперкарах-кабриолетах: Кларксон на McLaren MP4-12C Spider, Мэй на Audi R8 V10 Spyder и Хаммонд на Ferrari 458 Spider.
• Знаменитость в бюджетном авто: Бенедикт Камбербэтч, актер (сериал «Шерлок»).

Эпизод 4

- Дата эфира: 21.07.2013
Продолжительность: 00:59:36
Размер файла: 628 Мб-Описание:
• Кларксон сравнивает бензиновую и электрическую версии Mercedes SLS AMG на треке Top Gear.
• Ведущие строят из фургона Ford Transit автомобиль на воздушной подушке для затопленных территорий.
• Знаменитость в бюджетном авто: Хью Джекман, голливудский актер.

Эпизод 5

- Дата эфира: 28.07.2013
Продолжительность: 01:00:18
Размер файла:628 Мб-Описание:
• Джеймс Мэй выводит на трек Top Gear новый и старый Porsche 911.
• Ричард Хаммонд тестирует в Италии два Lamborghini — Aventador и Sesto Elemento.
• Джереми и Джеймс рассматривают кроссоверы за их способность тащить за собой дома наколесах.
• Знаменитость в бюджетном авто: Стивен Тайлер из группы Aerosmith.

Эпизод 6

- Дата эфира: 04.08.2013
Продолжительность: 01:01:18
Размер файла: 635 Мб-Описание:
• Ричард Хаммонд и Стиг испытывают новый Range Rover Sport.
• Джеймс Мэй и новый лондонский автобус.
• Джереми Кларксон и Jaguar F-Type.
• Гонщик Формулы-1 в бюджетном авто: Марк Уэббер.

[Цитировать]



Показать сообщения:    

Текущее время: 11-Дек 13:02

Часовой пояс: UTC + 3


Вы не можете начинать темы
Вы не можете отвечать на сообщения
Вы не можете редактировать свои сообщения
Вы не можете удалять свои сообщения
Вы не можете голосовать в опросах
Вы не можете прикреплять файлы к сообщениям
Вы не можете скачивать файлы

!ВНИМАНИЕ!
Сайт не предоставляет электронные версии произведений, а занимается лишь коллекционированием и каталогизацией ссылок, присылаемых и публикуемых на форуме нашими читателями. Если вы являетесь правообладателем какого-либо представленного материала и не желаете, чтобы ссылка на него находилась в нашем каталоге, свяжитесь с нами, и мы незамедлительно удалим ее. Файлы для обмена на трекере предоставлены пользователями сайта, и администрация не несет ответственности за их содержание. Просьба не заливать файлы, защищенные авторскими правами, а также файлы нелегального содержания!