[ Сегодня идет свободное скачивание без начисления Download ]


Статистика раздачи
Нет
 
   
 
Top  
 
 
-Пресная вода / Sweetwater (2013) HDRip
«Месть сладка»
- Год выпуска: 2013
Производство: США | Kickstart Productions, Mythic International Entertainment
Жанр: Триллер, Вестерн
Перевод: Одноголосый закадровый, любительский
Озвучка / Автор перевода: (Pashaup)
Субтитры: Вшитые отключаемые
Язык субтитров: Русский, Английский-Дата мировой премьеры: 24 января 2013 (США, Кинофестиваль «Сандэнс»)-Режиссер: Логан Миллер-Продюсер: Гленн Кендрик Экерманн, Стефен К. Бэннон, Рик Бенаттар-Актеры: Дженьюэри Джонс, Эд Харрис, Джейсон Айзекс, Эдуардо Норьега, Стивен Рут, Джейсон Алдин, Вик Браудер, Люче Рэйнс, Дилан Кенин, Кит Мэривезер ...-Описание фильма:
Действие картины будет разворачиваться в 1886 году в Нью-Мексико. Лента расскажет о молодой вдове, которая рискует всем, чтобы отомстить жестокому владельцу овцеводческой фермы за убийство своего мужа.
Продолжительность: 01:35:02
Качество видео: HDRip
Видеокодек: MPEG-4 AVC/H.264
Битрейт видео: ~ 1801 Кбит/сек
Размер кадра: 1024 x 424 at 23.976 fps : 0.173 Bits/Pixel
Аудио: AC3 5.1, 384 Кбит/сек, 48,0 КГц, 16 bit
Дополнительно: Сохранены оригинальные чаптеры как на Blu-ray

MediaInfo:

Уникальный идентификатор                 : 235478211475400684835133971400264335350 (0xB127743107695446997D6BADF17D3FF6)
Полное имя                               : G:\Presnaya.voda.2013.L1.HDRip.h264.1.45GB.mkv
Формат                                   : Matroska
Версия формата                           : Version 2
Размер файла                             : 1,45 Гбайт
Продолжительность                        : 1 ч. 35 м.
Общий поток                              : 2185 Кбит/сек
Название фильма                          : Presnaya.voda.2013.L1.HDRip.h264.1.45GB
Дата кодирования                         : UTC 2014-02-05 23:10:13
Программа кодирования                    : mkvmerge v2.9.9 ('Tutu') built on Nov 25 2009 21:13:32
Библиотека кодирования                   : libebml v0.7.9 + libmatroska v0.8.1
Видео
Идентификатор                            : 1
Формат                                   : AVC
Формат/Информация                        : Advanced Video Codec
Профиль формата                          : [url=mailto:High@L4.1]High@L4.1[/url]
Параметр CABAC формата                   : Да
Параметр ReFrames формата                : 9 кадров
Идентификатор кодека                     : V_MPEG4/ISO/AVC
Продолжительность                        : 1 ч. 35 м.
Битрейт                                  : 1801 Кбит/сек
Ширина                                   : 1024 пикселя
Высота                                   : 424 пикселя
Соотношение сторон                       : 2,40:1
Режим частоты кадров                     : Постоянный
Частота кадров                           : 23,976 кадра/сек
Цветовое пространство                    : YUV
Субдискретизация насыщенности            : 4:2:0
Битовая глубина                          : 8 бит
Тип развёртки                            : Прогрессивная
Бит/(Пиксели*Кадры)                      : 0.173
Размер потока                            : 1,17 Гбайт (80%)
Заголовок                                : -=Release for NNM-CLUB.RU=-
Библиотека кодирования                   : x264 core 133 r2334 a3ac64b
Настройки программы                      : cabac=1 / ref=9 / deblock=1:-3:-3 / analyse=0x3:0x113 / me=umh / subme=11 / psy=1 / psy_rd=1.00:0.25 / mixed_ref=0 / me_range=32 / chroma_me=1 / trellis=2 / 8x8dct=1 / cqm=0 / deadzone=21,11 / fast_pskip=1 / chroma_qp_offset=-4 / threads=12 / lookahead_threads=2 / sliced_threads=0 / nr=0 / decimate=0 / interlaced=0 / bluray_compat=0 / constrained_intra=0 / bframes=8 / b_pyramid=2 / b_adapt=2 / b_bias=0 / direct=3 / weightb=1 / open_gop=0 / weightp=2 / keyint=240 / keyint_min=23 / scenecut=40 / intra_refresh=0 / rc_lookahead=40 / rc=2pass / mbtree=1 / bitrate=1801 / ratetol=1.0 / qcomp=0.70 / qpmin=0 / qpmax=69 / qpstep=4 / cplxblur=20.0 / qblur=0.5 / vbv_maxrate=62500 / vbv_bufsize=78125 / nal_hrd=none / ip_ratio=1.40 / aq=1:1.00
Язык                                     : English
Default                                  : Нет
Forced                                   : Нет
Аудио
Идентификатор                            : 2
Формат                                   : AC-3
Формат/Информация                        : Audio Coding 3
Расширение режима                        : CM (complete main)
Параметр Endianness формата              : Big
Идентификатор кодека                     : A_AC3
Продолжительность                        : 1 ч. 35 м.
Вид битрейта                             : Постоянный
Битрейт                                  : 384 Кбит/сек
Каналы                                   : 6 каналов
Расположение каналов                     : Front: L C R, Side: L R, LFE
Частота                                  : 48,0 КГц
Битовая глубина                          : 16 бит
Метод сжатия                             : С потерями
Размер потока                            : 261 Мбайт (18%)
Заголовок                                : G:\Фильмы 2014\Пресная вода  Sweetwater  2013  ЛО  HDRip\Звук+сабы
Язык                                     : Russian
Default                                  : Да
Forced                                   : Нет
Текст #1
Идентификатор                            : 3
Формат                                   : UTF-8
Идентификатор кодека                     : S_TEXT/UTF8
Идентификатор кодека/Информация          : UTF-8 Plain Text
Заголовок                                : Russian (Full)
Язык                                     : Russian
Default                                  : Нет
Forced                                   : Нет
Текст #2
Идентификатор                            : 4
Формат                                   : UTF-8
Идентификатор кодека                     : S_TEXT/UTF8
Идентификатор кодека/Информация          : UTF-8 Plain Text
Заголовок                                : English (Full)
Язык                                     : English
Default                                  : Нет
Forced                                   : Нет
Меню
00:00:00.000                             : en:00:00:00.000
00:08:14.494                             : en:00:08:14.494
00:15:16.916                             : en:00:15:16.916
00:23:17.396                             : en:00:23:17.396
00:32:52.971                             : en:00:32:52.971
00:37:10.228                             : en:00:37:10.228
00:47:17.835                             : en:00:47:17.835
00:55:39.336                             : en:00:55:39.336
01:01:37.694                             : en:01:01:37.694
01:10:13.209                             : en:01:10:13.209
01:19:06.742                             : en:01:19:06.742
01:28:34.309                             : en:01:28:34.309

x264 iNFO

x264 [info]: profile High, level 4.1
x264 [info]: frame I:1410 Avg QP:15.88 size: 99369
x264 [info]: frame P:30666 Avg QP:19.29 size: 21202
x264 [info]: frame B:101702 Avg QP:21.31 size: 4916
x264 [info]: consecutive B-frames: 2.2% 2.6% 7.7% 35.7% 14.1% 34.7% 2.2% 0.6% 0.1%
Скриншоты:

[th]http://img.torrentsclub.org/di/JEH2/7c5f602d79be.png[/th] [th]http://img.torrentsclub.org/di/T07Y/af0a67f2ddb0.png[/th] [th]http://img.torrentsclub.org/di/F4X8/bd39c1cc142d.png[/th] [th]http://img.torrentsclub.org/di/O0TJ/db0ebe667e12.png[/th]


Время раздачи: 24/7 (до 10 скачавших)

[Цитировать]



Показать сообщения:    

Текущее время: 07-Дек 15:33

Часовой пояс: UTC + 3


Вы не можете начинать темы
Вы не можете отвечать на сообщения
Вы не можете редактировать свои сообщения
Вы не можете удалять свои сообщения
Вы не можете голосовать в опросах
Вы не можете прикреплять файлы к сообщениям
Вы не можете скачивать файлы

!ВНИМАНИЕ!
Сайт не предоставляет электронные версии произведений, а занимается лишь коллекционированием и каталогизацией ссылок, присылаемых и публикуемых на форуме нашими читателями. Если вы являетесь правообладателем какого-либо представленного материала и не желаете, чтобы ссылка на него находилась в нашем каталоге, свяжитесь с нами, и мы незамедлительно удалим ее. Файлы для обмена на трекере предоставлены пользователями сайта, и администрация не несет ответственности за их содержание. Просьба не заливать файлы, защищенные авторскими правами, а также файлы нелегального содержания!