[ Сегодня идет свободное скачивание без начисления Download ]


Статистика раздачи
Нет
 
   
 
Top  
 
 
-Добро пожаловать в джунгли / Welcome to the Jungle (2013) HDRip [H.264]- Год выпуска: 2013
Производство: Пуэрто Рико, США, Великобритания, Pimienta, Salt Company International, The
Жанр: Комедия
Перевод: Двуголосый закадровый, любительский
Субтитры: Отсутствуют
Дата мировой премьеры: 27 апреля 2013
Режиссер: Роб Мелцер
Продюсер: Роберт Беван, Марк Фелдштейн, Алекс Голдстоун
Актеры: Адам Броди, Жан-Клод Ван Дамм, Роб Хюбел, Кристен Шаал, Меган Бун, Деннис Хейсбёрт, Бьянка Бри, Эрик Эдельштейн, Роберт Питерс, Аарон Такахаси
Описание фильма:
Персонал дизайнерской фирмы отправляется в отпуск на тропический остров. Коллективный отдых заканчивается самым настоящим хаосом, когда герои сталкиваются с первыми серьезными трудностями.
Продолжительность: 01:34:13
Качество видео: HDRip-AVC
Видеокодек: MPEG-4 AVC/H.264
Битрейт видео: ~1763 Kbps
Размер кадра: 1024x428
Аудиокодек: AC3 5.1
Битрейт аудио: 448 Kbps

MediaInfo:

Общее
Уникальный идентификатор                 : 248116023979720366749211091699131833342 (0xBAA968746C76CBE0A1166CA0FE1D5BFE)
Полное имя                               : Welcome.To.The.Jungle.2013.HDRip-AVC.1,45GB.mkv
Формат                                   : Matroska
Версия формата                           : Version 4 / Version 2
Размер файла                             : 1,46 Гбайт
Продолжительность                        : 1 ч. 34 м.
Общий поток                              : 2213 Кбит/сек
Дата кодирования                         : UTC 2014-02-09 06:42:41
Программа кодирования                    : mkvmerge v6.7.0 ('Back to the Ground') 64bit built on Jan 22 2014 08:47:28
Библиотека кодирования                   : libebml v1.3.0 + libmatroska v1.4.1
Attachment                               : Yes
Видео
Идентификатор                            : 1
Формат                                   : AVC
Формат/Информация                        : Advanced Video Codec
Профиль формата                          : [url=mailto:High@L4.1]High@L4.1[/url]
Параметр CABAC формата                   : Да
Параметр ReFrames формата                : 8 кадров
Идентификатор кодека                     : V_MPEG4/ISO/AVC
Продолжительность                        : 1 ч. 34 м.
Битрейт                                  : 1763 Кбит/сек
Ширина                                   : 1024 пикселя
Высота                                   : 428 пикселей
Соотношение сторон                       : 2,40:1
Режим частоты кадров                     : Постоянный
Частота кадров                           : 23,976 кадра/сек
Цветовое пространство                    : YUV
Субдискретизация насыщенности            : 4:2:0
Битовая глубина                          : 8 бит
Тип развёртки                            : Прогрессивная
Бит/(Пиксели*Кадры)                      : 0.168
Размер потока                            : 1,13 Гбайт (78%)
Заголовок                                : Добро пожаловать в джунгли / Welcome to the Jungle (2013)
Библиотека кодирования                   : x264 core 130 r2273 b3065e6
Настройки программы                      : cabac=1 / ref=8 / deblock=1:-2:-2 / analyse=0x3:0x113 / me=umh / subme=10 / psy=1 / psy_rd=1.00:0.20 / mixed_ref=1 / me_range=32 / chroma_me=1 / trellis=2 / 8x8dct=1 / cqm=0 / deadzone=21,11 / fast_pskip=0 / chroma_qp_offset=-3 / threads=6 / lookahead_threads=1 / sliced_threads=0 / nr=0 / decimate=0 / interlaced=0 / bluray_compat=0 / constrained_intra=0 / bframes=10 / b_pyramid=2 / b_adapt=2 / b_bias=0 / direct=3 / weightb=1 / open_gop=0 / weightp=2 / keyint=240 / keyint_min=23 / scenecut=40 / intra_refresh=0 / rc_lookahead=40 / rc=2pass / mbtree=0 / bitrate=1763 / ratetol=1.0 / qcomp=0.60 / qpmin=0 / qpmax=69 / qpstep=4 / cplxblur=20.0 / qblur=0.5 / vbv_maxrate=50000 / vbv_bufsize=62500 / nal_hrd=none / ip_ratio=1.40 / pb_ratio=1.30 / aq=1:1.00
Default                                  : Да
Forced                                   : Нет
Аудио
Идентификатор                            : 2
Формат                                   : AC-3
Формат/Информация                        : Audio Coding 3
Расширение режима                        : CM (complete main)
Параметр Endianness формата              : Big
Идентификатор кодека                     : A_AC3
Продолжительность                        : 1 ч. 34 м.
Вид битрейта                             : Постоянный
Битрейт                                  : 448 Кбит/сек
Каналы                                   : 6 каналов
Расположение каналов                     : Front: L C R, Side: L R, LFE
Частота                                  : 48,0 КГц
Битовая глубина                          : 16 бит
Метод сжатия                             : С потерями
Размер потока                            : 302 Мбайт (20%)
Заголовок                                : Двухголосый закадровый | DD 5.1 @ 448 kbps
Язык                                     : Russian
Default                                  : Да
Forced                                   : Нет
Скриншоты:
[th]http://img.torrentsclub.org/di/SISN/520859e89f74070...3773299.png[/th] [th]http://img.torrentsclub.org/di/KEEA/bee375f367e9b0d...fc2cdb6.png[/th] [th]http://img.torrentsclub.org/di/2W5N/f6c204d2315c81d...2aa3ab1.png[/th]
Время раздачи: 24/7 по возможности

[Цитировать]



Показать сообщения:    

Текущее время: 11-Дек 16:43

Часовой пояс: UTC + 3


Вы не можете начинать темы
Вы не можете отвечать на сообщения
Вы не можете редактировать свои сообщения
Вы не можете удалять свои сообщения
Вы не можете голосовать в опросах
Вы не можете прикреплять файлы к сообщениям
Вы не можете скачивать файлы

!ВНИМАНИЕ!
Сайт не предоставляет электронные версии произведений, а занимается лишь коллекционированием и каталогизацией ссылок, присылаемых и публикуемых на форуме нашими читателями. Если вы являетесь правообладателем какого-либо представленного материала и не желаете, чтобы ссылка на него находилась в нашем каталоге, свяжитесь с нами, и мы незамедлительно удалим ее. Файлы для обмена на трекере предоставлены пользователями сайта, и администрация не несет ответственности за их содержание. Просьба не заливать файлы, защищенные авторскими правами, а также файлы нелегального содержания!