[ Сегодня идет свободное скачивание без начисления Download ]


Статистика раздачи
Нет
 
   
 
Top  
 
 
-Гравитация / Gravity
«Не отпускай»
- Год выпуска: 2013
Производство: США, Великобритания / Reality Media
Жанр: Фантастика, триллер, драма
Язык: Русский, английский
Перевод: Дублированный [iTunes]
Субтитры: Вшитые отключаемые
Язык субтитров: Русский (forced, full), украинский, английский (SDH)
Режиссер: Альфонсо Куарон / Alfonso Cuar?n
Продюсер: Альфонсо Куарон, Дэвид Хейман, Стивен Джонс
Актеры: Сандра Буллок, Джордж Клуни, Эд Харрис, Орто Игнатиуссен, Фалдут Шарма, Эми Уоррен, Башер Саваж, Дженис Ахерн
Описание фильма:
Доктор Райан Стоун, блестящий специалист в области медицинского инжиниринга, отправляется в свою первую космическую миссию под командованием ветерана астронавтики Мэтта Ковальски, для которого этот полет — последний перед отставкой. Но во время, казалось бы, рутинной работы за бортом случается катастрофа. Шаттл уничтожен, а Стоун и Ковальски остаются совершенно одни; они находятся в связке друг с другом, и все, что они могут, — это двигаться по орбите в абсолютно черном пространстве без всякой связи с Землей и какой-либо надежды на спасение.

Дата мировой премьеры: 28 августа 2013
Дата российской премьеры: 3 октября 2013, «Каро-Премьер»
Дата выхода DVD релиза: 21 февраля 2014, «CP Дистрибуция»
Дата выхода Blu-Ray релиза: 21 февраля 2014, «CP Дистрибуция»
Рейтинг MPAA: PG-13
Возраст: 12+
Продолжительность: 01:30:58
Качество видео: BDRip 3D
Видео: MPEG4_AVC/H.264, 1920x1080, ~12100 kbps, 0.244 bit/pixel
Аудио 1: AC3 5.1, 384 kbps, 48 kHz [Русский - дублированный]
Аудио 2: DTS 5.1, 1536 kbps, 48 kHz [Английский - оригинал]

Отчёт MediaInfo

Полное имя : D:\Гравитация-Gravity.(2013).BDRip.[1080p].3D.mkv
Формат : Matroska
Версия формата : Version 2
Размер файла : 9,08 Гбайт
Продолжительность : 1 ч. 30 м.
Общий поток : 14,3 Мбит/сек
Название фильма : Gravity (2013)
Дата кодирования : UTC 2014-02-07 15:41:57
Программа кодирования : mkvmerge v5.7.0 ('The Whirlwind') built on Aug 7 2012 14:11:40
Библиотека кодирования : libebml v1.2.3 + libmatroska v1.3.0
Видео
Идентификатор : 1
Формат : AVC
Формат/Информация : Advanced Video Codec
Профиль формата : High@L4.1
Параметр CABAC формата : Да
Параметр ReFrames формата : 2 кадра
Идентификатор кодека : V_MPEG4/ISO/AVC
Продолжительность : 1 ч. 30 м.
Битрейт : 12,1 Мбит/сек
Ширина : 1920 пикселей
Высота : 1080 пикселей
Соотношение сторон : 16:9
Режим частоты кадров : Постоянный
Частота кадров : 23,976 кадра/сек
Цветовое пространство : YUV
Субдискретизация насыщенности : 4:2:0
Битовая глубина : 8 бит
Тип развёртки : Прогрессивная
Бит/(Пиксели*Кадры) : 0.244
Размер потока : 7,69 Гбайт (85%)
Заголовок : Гравитация-Gravity.(2013).BDRip.[1080p].3D
Библиотека кодирования : x264 core
Язык : English
Default : Да
Forced : Нет
Основные цвета : BT.709
Характеристики трансфера : BT.709
Коэффициенты матрицы : BT.709
Аудио #1
Идентификатор : 2
Формат : AC-3
Формат/Информация : Audio Coding 3
Расширение режима : CM (complete main)
Параметр Endianness формата : Big
Идентификатор кодека : A_AC3
Продолжительность : 1 ч. 30 м.
Вид битрейта : Постоянный
Битрейт : 384 Кбит/сек
Каналы : 6 каналов
Расположение каналов : Front: L C R, Side: L R, LFE
Частота : 48,0 КГц
Битовая глубина : 16 бит
Метод сжатия : С потерями
Размер потока : 250 Мбайт (3%)
Заголовок : AC3 5.1 / 384 kbps / Dub
Язык : Russian
Default : Да
Forced : Нет
Аудио #2
Идентификатор : 3
Формат : DTS
Формат/Информация : Digital Theater Systems
Идентификатор кодека : A_DTS
Продолжительность : 1 ч. 30 м.
Вид битрейта : Постоянный
Битрейт : 1510 Кбит/сек
Каналы : 6 каналов
Расположение каналов : Front: L C R, Side: L R, LFE
Частота : 48,0 КГц
Битовая глубина : 16 бит
Метод сжатия : С потерями
Размер потока : 982 Мбайт (11%)
Заголовок : DTS 5.1 / 1536 kbps / Original
Язык : English
Default : Нет
Forced : Нет
Текст #1
Идентификатор : 4
Формат : UTF-8
Идентификатор кодека : S_TEXT/UTF8
Идентификатор кодека/Информация : UTF-8 Plain Text
Заголовок : Forced
Язык : Russian
Default : Да
Forced : Нет
Текст #2
Идентификатор : 5
Формат : UTF-8
Идентификатор кодека : S_TEXT/UTF8
Идентификатор кодека/Информация : UTF-8 Plain Text
Заголовок : Full
Язык : Russian
Default : Нет
Forced : Нет
Текст #3
Идентификатор : 6
Формат : UTF-8
Идентификатор кодека : S_TEXT/UTF8
Идентификатор кодека/Информация : UTF-8 Plain Text
Заголовок : Full
Язык : Ukrainian
Default : Нет
Forced : Нет
Текст #4
Идентификатор : 7
Формат : UTF-8
Идентификатор кодека : S_TEXT/UTF8
Идентификатор кодека/Информация : UTF-8 Plain Text
Заголовок : SDH
Язык : English
Default : Нет
Forced : Нет
Меню
00:00:00.000 : en:00:00:00.000
00:13:08.830 : en:00:13:08.830
00:21:33.542 : en:00:21:33.542
00:29:12.668 : en:00:29:12.668
00:39:59.856 : en:00:39:59.856
00:48:49.051 : en:00:48:49.051
00:57:00.667 : en:00:57:00.667
01:08:08.418 : en:01:08:08.418
01:15:27.148 : en:01:15:27.148
01:23:50.567 : en:01:23:50.567

[Цитировать]



Показать сообщения:    

Текущее время: 24-Янв 10:00

Часовой пояс: UTC + 3


Вы не можете начинать темы
Вы не можете отвечать на сообщения
Вы не можете редактировать свои сообщения
Вы не можете удалять свои сообщения
Вы не можете голосовать в опросах
Вы не можете прикреплять файлы к сообщениям
Вы не можете скачивать файлы

!ВНИМАНИЕ!
Сайт не предоставляет электронные версии произведений, а занимается лишь коллекционированием и каталогизацией ссылок, присылаемых и публикуемых на форуме нашими читателями. Если вы являетесь правообладателем какого-либо представленного материала и не желаете, чтобы ссылка на него находилась в нашем каталоге, свяжитесь с нами, и мы незамедлительно удалим ее. Файлы для обмена на трекере предоставлены пользователями сайта, и администрация не несет ответственности за их содержание. Просьба не заливать файлы, защищенные авторскими правами, а также файлы нелегального содержания!