[ Сегодня идет свободное скачивание без начисления Download ]


Статистика раздачи
Нет
 
   
 
Top  
 
 
-Гравитация / Gravity «Не отпускай»- Год выпуска: 2013
Производство: США, Великобритания / Reality Media
Жанр: Фантастика, Триллер, Драма
Перевод: Дублированный [iTunes]
Субтитры: Вшитые отключаемые / Отдельным файлом
Язык субтитров: Русский (forced)
Дата мировой премьеры: 28 августа 2013
Дата российской премьеры: 3 октября 2013, «Каро-Премьер»
Дата выхода DVD релиза: 21 февраля 2014, «CP Дистрибуция»
Дата выхода BLU-RAY релиза: 21 февраля 2014, «CP Дистрибуция»
Режиссер: Альфонсо Куарон
Продюсер: Альфонсо Куарон, Дэвид Хейман, Стивен Джонс
Актеры: Сандра Буллок, Джордж Клуни, Эд Харрис, Орто Игнатиуссен, Фалдут Шарма, Эми Уоррен, Башер Саваж, Дженис Ахерн
Описание фильма:
Доктор Райан Стоун, блестящий специалист в области медицинского инжиниринга, отправляется в свою первую космическую миссию под командованием ветерана астронавтики Мэтта Ковальски, для которого этот полет — последний перед отставкой. Но во время, казалось бы, рутинной работы за бортом случается катастрофа.
Шаттл уничтожен, а Стоун и Ковальски остаются совершенно одни; они находятся в связке друг с другом, и все, что они могут, — это двигаться по орбите в абсолютно черном пространстве без всякой связи с Землей и какой-либо надежды на спасение.-
Рейтинг MPAA: PG-13
Возраст: 12+-Продолжительность: 01:30:57
Качество видео: BDRip
Видеокодек: MPEG-4 AVC/H.264
Битрейт видео: ~15,1 Мбит/сек
Размер кадра: 1920x1080
Аудио 1: AC3 5.1, 384 kbps [Русский]
Аудио 2: AC3 5.1, 640 kbps [Английский]-

Media info:

Общее
Уникальный идентификатор : 226437888484352964149178173047002711324 (0xAA5A59DAFA45419B94AE05BFF6D9451C)
Полное имя : F:\my films\Gravity_3D\Gravity_3D.mkv
Формат : Matroska
Версия формата : Version 2
Размер файла : 10,5 Гбайт
Продолжительность : 1 ч. 30 м.
Общий поток : 16,5 Мбит/сек
Название фильма : Gravity_3D_Crop_O/U
Дата кодирования : UTC 2014-02-09 09:20:14
Программа кодирования : mkvmerge v5.7.0 ('The Whirlwind') built on Aug 7 2012 14:11:40
Библиотека кодирования : libebml v1.2.3 + libmatroska v1.3.0
Видео
Идентификатор : 1
Формат : AVC
Формат/Информация : Advanced Video Codec
Профиль формата : High@L4.1
Параметр CABAC формата : Да
Параметр ReFrames формата : 4 кадра
Идентификатор кодека : V_MPEG4/ISO/AVC
Продолжительность : 1 ч. 30 м.
Битрейт : 15,1 Мбит/сек
Ширина : 1920 пикселей
Высота : 1080 пикселей
Соотношение сторон : 16:9
Режим частоты кадров : Постоянный
Частота кадров : 23,976 кадра/сек
Цветовое пространство : YUV
Субдискретизация насыщенности : 4:2:0
Битовая глубина : 8 бит
Тип развёртки : Прогрессивная
Бит/(Пиксели*Кадры) : 0.304
Размер потока : 9,62 Гбайт (92%)
Заголовок : rip by I/N
Библиотека кодирования : x264 core 128 r2216M 198a7ea
Настройки программы : cabac=1 / ref=4 / deblock=1:-3:-3 / analyse=0x3:0x133 / me=umh / subme=10 / psy=1 / psy_rd=1.00:0.15 / mixed_ref=1 / me_range=32 / chroma_me=1 / trellis=2 / 8x8dct=1 / cqm=0 / deadzone=21,11 / fast_pskip=1 / chroma_qp_offset=-3 / threads=8 / lookahead_threads=1 / sliced_threads=0 / nr=0 / decimate=1 / interlaced=0 / bluray_compat=0 / constrained_intra=0 / bframes=6 / b_pyramid=2 / b_adapt=2 / b_bias=0 / direct=3 / weightb=1 / open_gop=0 / weightp=2 / keyint=230 / keyint_min=23 / scenecut=40 / intra_refresh=0 / rc_lookahead=60 / rc=crf / mbtree=1 / crf=18.0 / qcomp=0.60 / qpmin=0 / qpmax=69 / qpstep=4 / vbv_maxrate=40000 / vbv_bufsize=30000 / crf_max=30.0 / nal_hrd=none / ip_ratio=1.40 / aq=1:1.00
Default : Да
Forced : Нет
Аудио #1
Идентификатор : 2
Формат : AC-3
Формат/Информация : Audio Coding 3
Расширение режима : CM (complete main)
Параметр Endianness формата : Big
Идентификатор кодека : A_AC3
Продолжительность : 1 ч. 30 м.
Вид битрейта : Постоянный
Битрейт : 384 Кбит/сек
Каналы : 6 каналов
Расположение каналов : Front: L C R, Side: L R, LFE
Частота : 48,0 КГц
Битовая глубина : 16 бит
Метод сжатия : С потерями
Задержка видео : 650 мс.
Размер потока : 250 Мбайт (2%)
Заголовок : Дубляж (iTunes)
Язык : Russian
Default : Да
Forced : Нет
Аудио #2
Идентификатор : 3
Формат : AC-3
Формат/Информация : Audio Coding 3
Расширение режима : CM (complete main)
Параметр Endianness формата : Big
Идентификатор кодека : A_AC3
Продолжительность : 1 ч. 30 м.
Вид битрейта : Постоянный
Битрейт : 640 Кбит/сек
Каналы : 6 каналов
Расположение каналов : Front: L C R, Side: L R, LFE
Частота : 48,0 КГц
Битовая глубина : 16 бит
Метод сжатия : С потерями
Размер потока : 416 Мбайт (4%)
Заголовок : Original
Язык : English
Default : Нет
Forced : Нет
Текст
Идентификатор : 4
Формат : UTF-8
Идентификатор кодека : S_TEXT/UTF8
Идентификатор кодека/Информация : UTF-8 Plain Text
Заголовок : Forced
Язык : Russian
Default : Да
Forced : Нет
Меню
00:00:00.000 : en:(01)00:00:00:000
00:13:08.829 : en:(02)00:13:08:829
00:21:33.542 : en:(03)00:21:33:542
00:29:12.667 : en:(04)00:29:12:667
00:39:59.855 : en:(05)00:39:59:855
00:48:49.051 : en:(06)00:48:49:051
00:57:00.667 : en:(07)00:57:00:667
01:08:08.417 : en:(08)01:08:08:417
01:15:27.147 : en:(09)01:15:27:147
01:23:50.567 : en:(10)01:23:50:567
01:30:58.244 : en:(11)01:30:58:244

Особенности релиза:

Справа и слева у видеоряда обрезано по 248р, что дает возможность просмотра на полный экран (без черных полос) на телевизорах с соотношением сторон 16:9 без изменения пропорций. На мой взгляд плюсы данных рипов- это более глубокое восприятие 3D-эффектов (конечно там где они есть) К минусам отнесу- вынужденное обрезание кадра по бокам. Так-что господа- выбор за вами! Всем приятного просмотра!
Проверено на встроенном плейере ТВ Samsung-D6500

[Цитировать]



Показать сообщения:    

Текущее время: 09-Дек 14:40

Часовой пояс: UTC + 3


Вы не можете начинать темы
Вы не можете отвечать на сообщения
Вы не можете редактировать свои сообщения
Вы не можете удалять свои сообщения
Вы не можете голосовать в опросах
Вы не можете прикреплять файлы к сообщениям
Вы не можете скачивать файлы

!ВНИМАНИЕ!
Сайт не предоставляет электронные версии произведений, а занимается лишь коллекционированием и каталогизацией ссылок, присылаемых и публикуемых на форуме нашими читателями. Если вы являетесь правообладателем какого-либо представленного материала и не желаете, чтобы ссылка на него находилась в нашем каталоге, свяжитесь с нами, и мы незамедлительно удалим ее. Файлы для обмена на трекере предоставлены пользователями сайта, и администрация не несет ответственности за их содержание. Просьба не заливать файлы, защищенные авторскими правами, а также файлы нелегального содержания!