[ Сегодня идет свободное скачивание без начисления Download ]


Статистика раздачи
Нет
 
   
 
Top  
 
 
Жанр: Alternative Metal
Страна: США
Тип рипа: image+.cue (17 CD) и tracks+.cue (7[+1] CD)
Битрейт аудио: lossless
Продолжительность: 16:24:55
Наличие сканов в содержимом раздачи: частично
О группе: Disturbed (рус. «Растревоженные») — американская ню-метал и хэви-метал группа, образованная в городе Чикаго, штат Иллинойс музыкантами Дэном Дониганом, Стивом Кмаком, Майком Венгреном и Дэвидом Дрейманом. С момента формирования группы, они продали более чем 11 миллионов альбомов во всем мире и выпустили пять студийных альбомов, которые сделали их одной из самых успешных рок-групп за последние годы.-Альбомы

The Sickness (2000)

Promo CD

Страна-производитель диска: США
Издатель (лейбл): Giant Records
Номер по каталогу: 0075992473828
Тип рипа: image+.cue
Продолжительность: 47:45
Источник (релизер): собственный рип
Наличие сканов в содержимом раздачи: нет
Треклист:
01. Voices [3:12]
02. The Game [3:47]
03. Stupify [4:34]
04. Down With The Sickness [4:39]
05. Violence Fetish [3:24]
06. Fear [3:47]
07. Numb [3:45]
08. Want [3:53]
09. Conflict [4:35]
10. Shout 2000 [4:18]
11. Droppin' Plates [3:49]
12. Meaning Of Life [4:02]
Доп. информация: Рип сделан с промо-диска, который отличается от стандартного только оформлением. Содержание идентично на 100%.

Лог создания рипа

Exact Audio Copy V0.99 prebeta 5 from 4. May 2009
EAC extraction logfile from 5. July 2009, 18:40
Disturbed / The Sickness
Used drive : Optiarc DVD RW AD-7170S Adapter: 1 ID: 0
Read mode : SecureUtilize accurate stream : YesDefeat audio cache : YesMake use of C2 pointers : No
Read offset correction : 48Overread into Lead-In and Lead-Out : NoFill up missing offset samples with silence : YesDelete leading and trailing silent blocks : NoNull samples used in CRC calculations : YesUsed interface : Native Win32 interface for Win NT & 2000
Used output format : Internal WAV RoutinesSample format : 44.100 Hz; 16 Bit; Stereo
TOC of the extracted CD
Track | Start | Length | Start sector | End sector --------------------------------------------------------- 1 | 0:00.32 | 3:11.53 | 32 | 14409 2 | 3:12.10 | 3:47.05 | 14410 | 31439 3 | 6:59.15 | 4:34.12 | 31440 | 52001 4 | 11:33.27 | 4:38.50 | 52002 | 72901 5 | 16:12.02 | 3:23.58 | 72902 | 88184 6 | 19:35.60 | 3:46.70 | 88185 | 105204 7 | 23:22.55 | 3:44.65 | 105205 | 122069 8 | 27:07.45 | 3:52.55 | 122070 | 139524 9 | 31:00.25 | 4:35.20 | 139525 | 160169 10 | 35:35.45 | 4:17.55 | 160170 | 179499 11 | 39:53.25 | 3:49.17 | 179500 | 196691 12 | 43:42.42 | 4:02.40 | 196692 | 214881
Range status and errors
Selected range
Filename G:\DISTURBED\2000 - The Sickness.wav
Peak level 100.0 % Range quality 100.0 % Test CRC 93346D9E Copy CRC 93346D9E Copy OK
No errors occurred
AccurateRip summary
Track 1 accurately ripped (confidence 153) [E2FF47F2]Track 2 accurately ripped (confidence 154) [E0C48937]Track 3 accurately ripped (confidence 156) [CAA4C2EA]Track 4 accurately ripped (confidence 155) [8F9FFFED]Track 5 accurately ripped (confidence 150) [83574136]Track 6 accurately ripped (confidence 150) [9F44A2BC]Track 7 accurately ripped (confidence 149) [7CA29A34]Track 8 accurately ripped (confidence 152) [2A25F148]Track 9 accurately ripped (confidence 149) [317F1168]Track 10 accurately ripped (confidence 149) [598F68D1]Track 11 accurately ripped (confidence 147) [C10E77CD]Track 12 accurately ripped (confidence 135) [32672FFB]
All tracks accurately ripped
End of status report

Limited Edition

Страна-производитель диска: Германия
Год издания диска: 2002
Издатель (лейбл): Reprise Records
Номер по каталогу: 0093624831525
Тип рипа: image+.cue
Продолжительность: 69:27
Источник (релизер): собственный рип
Наличие сканов в содержимом раздачи: да, PNG 600dpi
Треклист:
01. Voices [3:12]
02. The Game [3:47]
03. Stupify [4:34]
04. Down With The Sickness [4:39]
05. Violence Fetish [3:24]
06. Fear [3:47]
07. Numb [3:45]
08. Want [3:53]
09. Conflict [4:35]
10. Shout 2000 [4:18]
11. Droppin' Plates [3:49]
12. Meaning Of Life [4:02]
13. God Of The Mind [3:05] (bonus track)
14. Stupify [Live] [4:53] (bonus track)
15. The Game [Live] [3:53] (bonus track)
16. Voices [Live] [3:36] (bonus track)
17. Down With The Sickness [Live] [6:16] (bonus track)

Лог создания рипа

Exact Audio Copy V0.99 prebeta 5 from 4. May 2009
EAC extraction logfile from 14. May 2011, 19:18
Disturbed / The Sickness
Used drive : ASUS DRW-2014L1T Adapter: 4 ID: 0
Read mode : SecureUtilize accurate stream : YesDefeat audio cache : YesMake use of C2 pointers : No
Read offset correction : 6Overread into Lead-In and Lead-Out : NoFill up missing offset samples with silence : YesDelete leading and trailing silent blocks : NoNull samples used in CRC calculations : YesUsed interface : Native Win32 interface for Win NT & 2000
Used output format : Internal WAV RoutinesSample format : 44.100 Hz; 16 Bit; Stereo
TOC of the extracted CD
Track | Start | Length | Start sector | End sector --------------------------------------------------------- 1 | 0:00.00 | 3:11.65 | 0 | 14389 2 | 3:11.65 | 3:47.05 | 14390 | 31419 3 | 6:58.70 | 4:34.12 | 31420 | 51981 4 | 11:33.07 | 4:38.50 | 51982 | 72881 5 | 16:11.57 | 3:23.58 | 72882 | 88164 6 | 19:35.40 | 3:46.70 | 88165 | 105184 7 | 23:22.35 | 3:44.65 | 105185 | 122049 8 | 27:07.25 | 3:52.55 | 122050 | 139504 9 | 31:00.05 | 4:35.12 | 139505 | 160141 10 | 35:35.17 | 4:17.63 | 160142 | 179479 11 | 39:53.05 | 3:49.17 | 179480 | 196671 12 | 43:42.22 | 4:01.58 | 196672 | 214804 13 | 47:44.05 | 3:04.65 | 214805 | 228669 14 | 50:48.70 | 4:53.07 | 228670 | 250651 15 | 55:42.02 | 3:52.38 | 250652 | 268089 16 | 59:34.40 | 3:35.70 | 268090 | 284284 17 | 63:10.35 | 6:16.22 | 284285 | 312506
Range status and errors
Selected range
Filename Z:\DISTURBED\2000 - The Sickness.wav
Peak level 100.0 % Range quality 99.9 % Test CRC C019B824 Copy CRC C019B824 Copy OK
No errors occurred
AccurateRip summary
Track 1 accurately ripped (confidence 103) [DCC886E3]Track 2 accurately ripped (confidence 104) [34F7F89B]Track 3 accurately ripped (confidence 105) [6814A481]Track 4 accurately ripped (confidence 104) [B87EE746]Track 5 accurately ripped (confidence 104) [450D4C8D]Track 6 accurately ripped (confidence 102) [298F89CB]Track 7 accurately ripped (confidence 103) [34CEDE1B]Track 8 accurately ripped (confidence 102) [027BB208]Track 9 accurately ripped (confidence 101) [B0F779AE]Track 10 accurately ripped (confidence 103) [8D7FAFC2]Track 11 accurately ripped (confidence 102) [B6B0DC52]Track 12 accurately ripped (confidence 102) [3010AF84]Track 13 accurately ripped (confidence 102) [48BFE0DE]Track 14 accurately ripped (confidence 98) [41D69E15]Track 15 accurately ripped (confidence 98) [F791A9B1]Track 16 accurately ripped (confidence 98) [25278EBF]Track 17 accurately ripped (confidence 95) [7E58FFF3]
All tracks accurately ripped
End of status report

10th Anniversary Edition

Страна-производитель диска: США
Год издания диска: 2010
Издатель (лейбл): Reprise Records
Номер по каталогу: 0093624969594
Тип рипа: image+.cue
Продолжительность: 54:21
Источник (релизер): собственный рип
Наличие сканов в содержимом раздачи: да, PNG 600dpi
Треклист:
01. Voices [3:12]
02. The Game [3:47]
03. Stupify [4:34]
04. Down With The Sickness [4:39]
05. Violence Fetish [3:24]
06. Fear [3:47]
07. Numb [3:45]
08. Want [3:53]
09. Conflict [4:35]
10. Shout 2000 [4:18]
11. Droppin' Plates [3:49]
12. Meaning Of Life [4:02]
13. God Of The Mind [3:06]
14. A Welcome Burden [3:32]

Лог создания рипа

Exact Audio Copy V0.99 prebeta 5 from 4. May 2009
EAC extraction logfile from 7. June 2011, 17:33
Disturbed / The Sickness
Used drive : TSSTcorpCDDVDW TS-L633C Adapter: 1 ID: 0
Read mode : SecureUtilize accurate stream : YesDefeat audio cache : YesMake use of C2 pointers : No
Read offset correction : 6Overread into Lead-In and Lead-Out : NoFill up missing offset samples with silence : YesDelete leading and trailing silent blocks : NoNull samples used in CRC calculations : YesUsed interface : Native Win32 interface for Win NT & 2000
Used output format : Internal WAV RoutinesSample format : 44.100 Hz; 16 Bit; Stereo
TOC of the extracted CD
Track | Start | Length | Start sector | End sector --------------------------------------------------------- 1 | 0:00.00 | 3:11.72 | 0 | 14396 2 | 3:11.72 | 3:46.67 | 14397 | 31413 3 | 6:58.64 | 4:34.00 | 31414 | 51963 4 | 11:32.64 | 4:38.53 | 51964 | 72866 5 | 16:11.42 | 3:23.45 | 72867 | 88136 6 | 19:35.12 | 3:46.66 | 88137 | 105152 7 | 23:22.03 | 3:44.62 | 105153 | 122014 8 | 27:06.65 | 3:52.43 | 122015 | 139457 9 | 30:59.33 | 4:35.20 | 139458 | 160102 10 | 35:34.53 | 4:18.09 | 160103 | 179461 11 | 39:52.62 | 3:48.54 | 179462 | 196615 12 | 43:41.41 | 4:02.07 | 196616 | 214772 13 | 47:43.48 | 3:05.48 | 214773 | 228695 14 | 50:49.21 | 3:31.59 | 228696 | 244579
Range status and errors
Selected range
Filename Z:\DISTURBED\2000 - The Sickness.wav
Peak level 100.0 % Range quality 100.0 % Test CRC 62DF5BB7 Copy CRC 62DF5BB7 Copy OK
No errors occurred
AccurateRip summary
Track 1 accurately ripped (confidence 8) [2D1D3B14]Track 2 accurately ripped (confidence 8) [6209984E]Track 3 accurately ripped (confidence 8) [F18D79B9]Track 4 accurately ripped (confidence 8) [C69CE411]Track 5 accurately ripped (confidence 8) [CEFFB6FF]Track 6 accurately ripped (confidence 8) [CEB15B4C]Track 7 accurately ripped (confidence 8) [5EE13B74]Track 8 accurately ripped (confidence 8) [1BA6A138]Track 9 accurately ripped (confidence 8) [C771416A]Track 10 accurately ripped (confidence 8) [DF072D5F]Track 11 accurately ripped (confidence 8) [39CF77A7]Track 12 accurately ripped (confidence 8) [EF2F8301]Track 13 accurately ripped (confidence 8) [CAD87227]Track 14 accurately ripped (confidence 8) [21B8707F]
All tracks accurately ripped
End of status report
Доп. информация: юбилейное издание к десятой годовщине альбома, в котором произведен полный ремастеринг, изменено оформление и добавлен трек A Welcome Burden, ранее не издававшийся на альбоме.

Believe (2002)

Standard Edition (ECD)

Страна-производитель диска: Германия
Издатель (лейбл): Reprise Records
Номер по каталогу: 0093624832027
Тип рипа: image+.cue
Продолжительность: 47:20
Источник (релизер): собственный рип
Наличие сканов в содержимом раздачи: да, PNG 600dpi
Треклист:
01. Prayer [3:41]
02. Liberate [3:30]
03. Awaken [4:29]
04. Believe [4:28]
05. Remember [4:11]
06. Intoxication [3:14]
07. Rise [3:57]
08. Mistress [3:47]
09. Breathe [4:21]
10. Bound [3:53]
11. Devour [3:52]
12. Darkness [3:57]

Лог создания рипа

Exact Audio Copy V0.99 prebeta 5 from 4. May 2009
EAC extraction logfile from 7. June 2011, 18:12
Disturbed / Believe
Used drive : TSSTcorpCDDVDW TS-L633C Adapter: 1 ID: 0
Read mode : SecureUtilize accurate stream : YesDefeat audio cache : YesMake use of C2 pointers : No
Read offset correction : 6Overread into Lead-In and Lead-Out : NoFill up missing offset samples with silence : YesDelete leading and trailing silent blocks : NoNull samples used in CRC calculations : YesUsed interface : Native Win32 interface for Win NT & 2000
Used output format : Internal WAV RoutinesSample format : 44.100 Hz; 16 Bit; Stereo
TOC of the extracted CD
Track | Start | Length | Start sector | End sector --------------------------------------------------------- 1 | 0:00.00 | 3:41.20 | 0 | 16594 2 | 3:41.20 | 3:29.72 | 16595 | 32341 3 | 7:11.17 | 4:29.15 | 32342 | 52531 4 | 11:40.32 | 4:27.45 | 52532 | 72601 5 | 16:08.02 | 4:11.23 | 72602 | 91449 6 | 20:19.25 | 3:14.00 | 91450 | 105999 7 | 23:33.25 | 3:57.00 | 106000 | 123774 8 | 27:30.25 | 3:46.50 | 123775 | 140774 9 | 31:17.00 | 4:21.20 | 140775 | 160369 10 | 35:38.20 | 3:53.00 | 160370 | 177844 11 | 39:31.20 | 3:52.35 | 177845 | 195279 12 | 43:23.55 | 3:56.45 | 195280 | 213024 13 | 49:52.25 | 12:02.34 | 224425 | 278608
Range status and errors
Selected range
Filename Z:\DISTURBED\2002 - Believe.wav
Peak level 100.0 % Range quality 100.0 % Test CRC F67F6156 Copy CRC F67F6156 Copy OK
No errors occurred
AccurateRip summary
Track 1 accurately ripped (confidence 84) [DD4A1478]Track 2 accurately ripped (confidence 84) [03A1BBAF]Track 3 accurately ripped (confidence 84) [3204E771]Track 4 accurately ripped (confidence 83) [FA2409BD]Track 5 accurately ripped (confidence 84) [B251A300]Track 6 accurately ripped (confidence 84) [DA2228A6]Track 7 accurately ripped (confidence 83) [8785C3F4]Track 8 accurately ripped (confidence 84) [2B5B60F8]Track 9 accurately ripped (confidence 84) [C4826B68]Track 10 accurately ripped (confidence 84) [4D7AC2AA]Track 11 accurately ripped (confidence 84) [33A867D8]Track 12 accurately ripped (confidence 82) [58D00E4F]
All tracks accurately ripped
End of status report

Бонус

В качестве бонуса на диске присутствует клип Prayer.
Продолжительность: 5:26
Формат: QuickTime
Видео кодек: Sorenson
Аудио кодек: IMA ADPCM
Видео: Sorenson Video 3, 320x240
Аудио: stereo, 48kHz
Для просмотра в системе должен быть установлен QuickTime Player.

Скриншоты

Japanese Edition (ECD)

Страна-производитель диска: Япония
Издатель (лейбл): Reprise Records
Номер по каталогу: 4943674036578
Тип рипа: image+.cue
Продолжительность: 52:14
Источник (релизер): собственный рип
Наличие сканов в содержимом раздачи: нет
Треклист:
01. Prayer [3:41]
02. Liberate [3:30]
03. Awaken [4:29]
04. Believe [4:28]
05. Remember [4:11]
06. Intoxication [3:14]
07. Rise [3:57]
08. Mistress [3:47]
09. Breathe [4:21]
10. Bound [3:53]
11. Devour [3:52]
12. Darkness [4:03]
13. Shout 2000 [Live] [4:48] (bonus track)

Лог создания рипа

Exact Audio Copy V0.99 prebeta 5 from 4. May 2009
EAC extraction logfile from 28. March 2010, 11:02
Disturbed / Believe
Used drive : _NEC DVD_RW ND-3540A Adapter: 0 ID: 0
Read mode : SecureUtilize accurate stream : YesDefeat audio cache : YesMake use of C2 pointers : No
Read offset correction : 48Overread into Lead-In and Lead-Out : NoFill up missing offset samples with silence : YesDelete leading and trailing silent blocks : NoNull samples used in CRC calculations : YesUsed interface : Native Win32 interface for Win NT & 2000
Used output format : Internal WAV RoutinesSample format : 44.100 Hz; 16 Bit; Stereo
TOC of the extracted CD
Track | Start | Length | Start sector | End sector --------------------------------------------------------- 1 | 0:00.00 | 3:41.20 | 0 | 16594 2 | 3:41.20 | 3:30.00 | 16595 | 32344 3 | 7:11.20 | 4:29.15 | 32345 | 52534 4 | 11:40.35 | 4:27.45 | 52535 | 72604 5 | 16:08.05 | 4:11.20 | 72605 | 91449 6 | 20:19.25 | 3:14.00 | 91450 | 105999 7 | 23:33.25 | 3:57.00 | 106000 | 123774 8 | 27:30.25 | 3:46.50 | 123775 | 140774 9 | 31:17.00 | 4:21.20 | 140775 | 160369 10 | 35:38.20 | 3:53.00 | 160370 | 177844 11 | 39:31.20 | 3:52.35 | 177845 | 195279 12 | 43:23.55 | 4:02.60 | 195280 | 213489 13 | 47:26.40 | 4:47.65 | 213490 | 235079 14 | 54:46.30 | 12:04.54 | 246480 | 300833
Range status and errors
Selected range
Filename G:\DISTURBED\2002 - Believe.wav
Peak level 100.0 % Range quality 100.0 % Test CRC 5CAC6F06 Copy CRC 5CAC6F06 Copy OK
No errors occurred
AccurateRip summary
Track 1 accurately ripped (confidence 3) [4E85790D]Track 2 accurately ripped (confidence 3) [A86BA216]Track 3 accurately ripped (confidence 3) [953156F1]Track 4 accurately ripped (confidence 3) [F3244CF9]Track 5 accurately ripped (confidence 3) [B2743781]Track 6 accurately ripped (confidence 3) [071D5498]Track 7 accurately ripped (confidence 3) [AD340257]Track 8 accurately ripped (confidence 3) [78974206]Track 9 accurately ripped (confidence 3) [1995D549]Track 10 accurately ripped (confidence 3) [716A2279]Track 11 accurately ripped (confidence 3) [7F9F40C8]Track 12 accurately ripped (confidence 3) [1266C8F3]Track 13 accurately ripped (confidence 3) [29D23379]
All tracks accurately ripped
End of status report
Примечание: содержимое data-трека на данном диске аналогично стандартному изданию.

Tour Edition

Страна-производитель диска: Австралия
Издатель (лейбл): Reprise Records
Номер по каталогу: 9325583018541
Тип рипа: tracks+.cue
Продолжительность: 68:03
Источник (релизер): maximus_2008
Наличие сканов в содержимом раздачи: да, JPG (частично)

CD1 (ECD)

Продолжительность: 47:22
Треклист:
01. Prayer [3:41]
02. Liberate [3:30]
03. Awaken [4:29]
04. Believe [4:28]
05. Remember [4:11]
06. Intoxication [3:14]
07. Rise [3:57]
08. Mistress [3:47]
09. Breathe [4:21]
10. Bound [3:53]
11. Devour [3:52]
12. Darkness [3:59]

Лог создания рипа

Exact Audio Copy V0.99 prebeta 5 from 4. May 2009
EAC extraction logfile from 10. March 2010, 22:17
Disturbed / Believe
Used drive : PIONEER DVD-RW DVR-111D Adapter: 1 ID: 1
Read mode : SecureUtilize accurate stream : YesDefeat audio cache : YesMake use of C2 pointers : No
Read offset correction : 48Overread into Lead-In and Lead-Out : NoFill up missing offset samples with silence : YesDelete leading and trailing silent blocks : NoNull samples used in CRC calculations : YesUsed interface : Native Win32 interface for Win NT & 2000Gap handling : Appended to previous track
Used output format : User Defined EncoderSelected bitrate : 768 kBit/sQuality : HighAdd ID3 tag : NoCommand line compressor : C:\Program Files (x86)\Exact Audio Copy\FLAC\FLAC.EXEAdditional command line options : -V -8 -T "artist=%a" -T "title=%t" -T "album=%g" -T "date=%y" -T "tracknumber=%n" -T "genre=%m" %s
TOC of the extracted CD
Track | Start | Length | Start sector | End sector --------------------------------------------------------- 1 | 0:00.00 | 3:41.00 | 0 | 16574 2 | 3:41.00 | 3:30.01 | 16575 | 32325 3 | 7:11.01 | 4:29.19 | 32326 | 52519 4 | 11:40.20 | 4:27.50 | 52520 | 72594 5 | 16:07.70 | 4:11.08 | 72595 | 91427 6 | 20:19.03 | 3:14.05 | 91428 | 105982 7 | 23:33.08 | 3:57.01 | 105983 | 123758 8 | 27:30.09 | 3:46.53 | 123759 | 140761 9 | 31:16.62 | 4:21.19 | 140762 | 160355 10 | 35:38.06 | 3:52.69 | 160356 | 177824 11 | 39:31.00 | 3:52.32 | 177825 | 195256 12 | 43:23.32 | 3:58.68 | 195257 | 213174 13 | 49:54.25 | 20:33.23 | 224575 | 317072
Track 1
Filename D:\Music Rips\Disturbed - 2002 - Believe [FLAC]\01 - Prayer.wav
Pre-gap length 0:00:02.00
Peak level 100.0 % Track quality 100.0 % Test CRC 51D14168 Copy CRC 51D14168 Accurately ripped (confidence 2) [F29FC206] Copy OK
Track 2
Filename D:\Music Rips\Disturbed - 2002 - Believe [FLAC]\02 - Liberate.wav
Peak level 100.0 % Track quality 100.0 % Test CRC 0D84A5FA Copy CRC 0D84A5FA Accurately ripped (confidence 2) [FCDAB062] Copy OK
Track 3
Filename D:\Music Rips\Disturbed - 2002 - Believe [FLAC]\03 - Awaken.wav
Peak level 99.9 % Track quality 100.0 % Test CRC BA0E37DB Copy CRC BA0E37DB Cannot be verified as accurate (confidence 2) [4AE2F830], AccurateRip returned [2197201E] Copy OK
Track 4
Filename D:\Music Rips\Disturbed - 2002 - Believe [FLAC]\04 - Believe.wav
Peak level 99.9 % Track quality 100.0 % Test CRC 81423A33 Copy CRC 81423A33 Accurately ripped (confidence 2) [6E77BB97] Copy OK
Track 5
Filename D:\Music Rips\Disturbed - 2002 - Believe [FLAC]\05 - Remember.wav
Peak level 98.0 % Track quality 100.0 % Test CRC 6576EFEF Copy CRC 6576EFEF Accurately ripped (confidence 2) [45BB8CAB] Copy OK
Track 6
Filename D:\Music Rips\Disturbed - 2002 - Believe [FLAC]\06 - Intoxication.wav
Peak level 99.9 % Track quality 100.0 % Test CRC 7AE43F51 Copy CRC 7AE43F51 Accurately ripped (confidence 2) [3AD1FDE1] Copy OK
Track 7
Filename D:\Music Rips\Disturbed - 2002 - Believe [FLAC]\07 - Rise.wav
Peak level 99.9 % Track quality 100.0 % Test CRC C066E6E1 Copy CRC C066E6E1 Accurately ripped (confidence 2) [9344113B] Copy OK
Track 8
Filename D:\Music Rips\Disturbed - 2002 - Believe [FLAC]\08 - Mistress.wav
Peak level 100.0 % Track quality 100.0 % Test CRC 7803265C Copy CRC 7803265C Accurately ripped (confidence 2) [3D6BFAF9] Copy OK
Track 9
Filename D:\Music Rips\Disturbed - 2002 - Believe [FLAC]\09 - Breathe.wav
Peak level 100.0 % Track quality 100.0 % Test CRC 95ED49EB Copy CRC 95ED49EB Accurately ripped (confidence 2) [EAD1DDC2] Copy OK
Track 10
Filename D:\Music Rips\Disturbed - 2002 - Believe [FLAC]\10 - Bound.wav
Peak level 99.9 % Track quality 100.0 % Test CRC 79904449 Copy CRC 79904449 Accurately ripped (confidence 2) [B301590A] Copy OK
Track 11
Filename D:\Music Rips\Disturbed - 2002 - Believe [FLAC]\11 - Devour.wav
Peak level 99.9 % Track quality 99.9 % Test CRC 910E5974 Copy CRC 910E5974 Accurately ripped (confidence 2) [774CFBFB] Copy OK
Track 12
Filename D:\Music Rips\Disturbed - 2002 - Believe [FLAC]\12 - Darkness.wav
Peak level 93.0 % Track quality 100.0 % Test CRC A816AA8B Copy CRC A816AA8B Accurately ripped (confidence 2) [889E219A] Copy OK
11 track(s) accurately ripped 1 track(s) could not be verified as accurate
Some tracks could not be verified as accurate
No errors occurred
End of status report
------------------------------------------------------------
Exact Audio Copy V0.99 prebeta 5 from 4. May 2009
EAC extraction logfile from 10. March 2010, 22:22
Disturbed / Believe
Used drive : PIONEER DVD-RW DVR-111D Adapter: 1 ID: 1
Read mode : SecureUtilize accurate stream : YesDefeat audio cache : YesMake use of C2 pointers : No
Read offset correction : 48Overread into Lead-In and Lead-Out : NoFill up missing offset samples with silence : YesDelete leading and trailing silent blocks : NoNull samples used in CRC calculations : YesUsed interface : Native Win32 interface for Win NT & 2000Gap handling : Appended to previous track
Used output format : User Defined EncoderSelected bitrate : 768 kBit/sQuality : HighAdd ID3 tag : NoCommand line compressor : C:\Program Files (x86)\Exact Audio Copy\FLAC\FLAC.EXEAdditional command line options : -V -8 -T "artist=%a" -T "title=%t" -T "album=%g" -T "date=%y" -T "tracknumber=%n" -T "genre=%m" %s
TOC of the extracted CD
Track | Start | Length | Start sector | End sector --------------------------------------------------------- 1 | 0:00.00 | 3:41.00 | 0 | 16574 2 | 3:41.00 | 3:30.01 | 16575 | 32325 3 | 7:11.01 | 4:29.19 | 32326 | 52519 4 | 11:40.20 | 4:27.50 | 52520 | 72594 5 | 16:07.70 | 4:11.08 | 72595 | 91427 6 | 20:19.03 | 3:14.05 | 91428 | 105982 7 | 23:33.08 | 3:57.01 | 105983 | 123758 8 | 27:30.09 | 3:46.53 | 123759 | 140761 9 | 31:16.62 | 4:21.19 | 140762 | 160355 10 | 35:38.06 | 3:52.69 | 160356 | 177824 11 | 39:31.00 | 3:52.32 | 177825 | 195256 12 | 43:23.32 | 3:58.68 | 195257 | 213174 13 | 49:54.25 | 20:33.23 | 224575 | 317072
Track 3
Filename D:\Music Rips\Disturbed - 2002 - Believe [FLAC]\03 - Awaken.wav
Peak level 99.9 % Track quality 100.0 % Test CRC BA0E37DB Copy CRC BA0E37DB Cannot be verified as accurate (confidence 2) [4AE2F830], AccurateRip returned [2197201E] Copy OK
No tracks could be verified as accurateYou may have a different pressing from the one(s) in the database
No errors occurred
End of status report

Содержание индексной карты (.CUE)

REM GENRE Alternative Metal / Hard RockREM DATE 2002PERFORMER "Disturbed"TITLE "Believe"FILE "01 - Prayer.wav" WAVE TRACK 01 AUDIO TITLE "Prayer" PERFORMER "Disturbed" INDEX 01 00:00:00FILE "02 - Liberate.wav" WAVE TRACK 02 AUDIO TITLE "Liberate" PERFORMER "Disturbed" INDEX 01 00:00:00FILE "03 - Awaken.wav" WAVE TRACK 03 AUDIO TITLE "Awaken" PERFORMER "Disturbed" INDEX 01 00:00:00FILE "04 - Believe.wav" WAVE TRACK 04 AUDIO TITLE "Believe" PERFORMER "Disturbed" INDEX 01 00:00:00FILE "05 - Remember.wav" WAVE TRACK 05 AUDIO TITLE "Remember" PERFORMER "Disturbed" INDEX 01 00:00:00FILE "06 - Intoxication.wav" WAVE TRACK 06 AUDIO TITLE "Intoxication" PERFORMER "Disturbed" INDEX 01 00:00:00FILE "07 - Rise.wav" WAVE TRACK 07 AUDIO TITLE "Rise" PERFORMER "Disturbed" INDEX 01 00:00:00FILE "08 - Mistress.wav" WAVE TRACK 08 AUDIO TITLE "Mistress" PERFORMER "Disturbed" INDEX 01 00:00:00FILE "09 - Breathe.wav" WAVE TRACK 09 AUDIO TITLE "Breathe" PERFORMER "Disturbed" INDEX 01 00:00:00FILE "10 - Bound.wav" WAVE TRACK 10 AUDIO TITLE "Bound" PERFORMER "Disturbed" INDEX 01 00:00:00FILE "11 - Devour.wav" WAVE TRACK 11 AUDIO TITLE "Devour" PERFORMER "Disturbed" INDEX 01 00:00:00FILE "12 - Darkness.wav" WAVE TRACK 12 AUDIO TITLE "Darkness" PERFORMER "Disturbed" INDEX 01 00:00:00 TRACK 13 MODEx/2xxx TITLE "DATA" PERFORMER "Disturbed" INDEX 00 03:58:68
Примечание: содержимое data-трека неизвестно.

CD2 (Bonus)

Продолжительность: 20:41
Треклист:
01. Remember [Live] [4:22]
02. Bound [Live] [3:51]
03. Fear [Live] [3:50]
04. Conflict [Live] [4:40]
05. Droppin' Plates [Live] [3:57]

Лог создания рипа

Exact Audio Copy V0.99 prebeta 5 from 4. May 2009
EAC extraction logfile from 10. March 2010, 20:09
Disturbed / Believe Australasian Bonus CD
Used drive : HL-DT-STDVDRAM GH22NS50 Adapter: 2 ID: 1
Read mode : SecureUtilize accurate stream : YesDefeat audio cache : YesMake use of C2 pointers : No
Read offset correction : 667Overread into Lead-In and Lead-Out : NoFill up missing offset samples with silence : YesDelete leading and trailing silent blocks : NoNull samples used in CRC calculations : YesUsed interface : Native Win32 interface for Win NT & 2000Gap handling : Appended to previous track
Used output format : User Defined EncoderSelected bitrate : 1024 kBit/sQuality : HighAdd ID3 tag : NoCommand line compressor : D:\Program Files (x86)\Exact Audio Copy\FLAC\FLAC.EXEAdditional command line options : -V -8 -T "artist=%a" -T "title=%t" -T "album=%g" -T "date=%y" -T "tracknumber=%n" -T "genre=%m" %s
TOC of the extracted CD
Track | Start | Length | Start sector | End sector --------------------------------------------------------- 1 | 0:00.00 | 4:22.30 | 0 | 19679 2 | 4:22.30 | 3:51.12 | 19680 | 37016 3 | 8:13.42 | 3:50.28 | 37017 | 54294 4 | 12:03.70 | 4:40.17 | 54295 | 75311 5 | 16:44.12 | 3:56.43 | 75312 | 93054
Track 1
Filename D:\Music\Distrubed\01 - Remember (Live).wav
Pre-gap length 0:00:02.00
Peak level 94.3 % Track quality 100.0 % Test CRC 0D3F6E5B Copy CRC 0D3F6E5B Track not present in AccurateRip database Copy OK
Track 2
Filename D:\Music\Distrubed\02 - Bound (Live).wav
Peak level 94.3 % Track quality 100.0 % Test CRC 9A994D6B Copy CRC 9A994D6B Track not present in AccurateRip database Copy OK
Track 3
Filename D:\Music\Distrubed\03 - Fear (Live).wav
Peak level 99.9 % Track quality 100.0 % Test CRC 90C8DBD6 Copy CRC 90C8DBD6 Track not present in AccurateRip database Copy OK
Track 4
Filename D:\Music\Distrubed\04 - Conflict (Live).wav
Pre-gap length 0:00:01.56
Peak level 99.1 % Track quality 99.9 % Test CRC 08B3A10D Copy CRC 08B3A10D Track not present in AccurateRip database Copy OK
Track 5
Filename D:\Music\Distrubed\05 - Droppin' Plates (Live).wav
Pre-gap length 0:00:05.19
Peak level 99.2 % Track quality 100.0 % Test CRC 3621B09F Copy CRC 3621B09F Track not present in AccurateRip database Copy OK
None of the tracks are present in the AccurateRip database
No errors occurred
End of status report

Содержание индексной карты (.CUE)

REM GENRE Alternative Metal / Hard RockREM DATE 2002PERFORMER "Disturbed"TITLE "Believe [Australian Bonus CD]"FILE "01 - Remember [Live].wav" WAVE TRACK 01 AUDIO TITLE "Remember [Live]" PERFORMER "Disturbed" INDEX 01 00:00:00FILE "02 - Bound [Live].wav" WAVE TRACK 02 AUDIO TITLE "Bound [Live]" PERFORMER "Disturbed" INDEX 01 00:00:00FILE "03 - Fear [Live].wav" WAVE TRACK 03 AUDIO TITLE "Fear [Live]" PERFORMER "Disturbed" INDEX 01 00:00:00 TRACK 04 AUDIO TITLE "Conflict [Live]" PERFORMER "Disturbed" INDEX 00 03:48:47FILE "04 - Conflict [Live].wav" WAVE INDEX 01 00:00:00 TRACK 05 AUDIO TITLE "Droppin' Plates [Live]" PERFORMER "Disturbed" INDEX 00 04:34:73FILE "05 - Droppin' Plates [Live].wav" WAVE INDEX 01 00:00:00

Ten Thousand Fists (2005)

Standard Edition

Страна-производитель диска: Германия
Издатель (лейбл): Reprise Records
Номер по каталогу: 0093624943327
Тип рипа: image+.cue
Продолжительность: 56:26
Источник (релизер): собственный рип
Наличие сканов в содержимом раздачи: да, PNG 600dpi
Треклист:
01. Ten Thousand Fists [3:33]
02. Just Stop [3:46]
03. Guarded [3:23]
04. Deify [4:18]
05. Stricken [4:07]
06. I'm Alive [4:42]
07. Sons Of Plunder [3:51]
08. Overburdened [5:59]
09. Decadence [3:27]
10. Forgiven [4:15]
11. Land Of Confusion [4:50]
12. Sacred Lie [3:08]
13. Pain Redefined [4:10]
14. Avarice [2:57]

Лог создания рипа

Exact Audio Copy V0.99 prebeta 5 from 4. May 2009
EAC extraction logfile from 14. May 2011, 19:48
Disturbed / Ten Thousand Fists
Used drive : ASUS DRW-2014L1T Adapter: 4 ID: 0
Read mode : SecureUtilize accurate stream : YesDefeat audio cache : YesMake use of C2 pointers : No
Read offset correction : 6Overread into Lead-In and Lead-Out : NoFill up missing offset samples with silence : YesDelete leading and trailing silent blocks : NoNull samples used in CRC calculations : YesUsed interface : Native Win32 interface for Win NT & 2000
Used output format : Internal WAV RoutinesSample format : 44.100 Hz; 16 Bit; Stereo
TOC of the extracted CD
Track | Start | Length | Start sector | End sector --------------------------------------------------------- 1 | 0:00.00 | 3:33.20 | 0 | 15994 2 | 3:33.20 | 3:46.19 | 15995 | 32963 3 | 7:19.39 | 3:22.42 | 32964 | 48155 4 | 10:42.06 | 4:18.19 | 48156 | 67524 5 | 15:00.25 | 4:07.17 | 67525 | 86066 6 | 19:07.42 | 4:42.04 | 86067 | 107220 7 | 23:49.46 | 3:50.42 | 107221 | 124512 8 | 27:40.13 | 5:59.24 | 124513 | 151461 9 | 33:39.37 | 3:27.04 | 151462 | 166990 10 | 37:06.41 | 4:15.04 | 166991 | 186119 11 | 41:21.45 | 4:50.10 | 186120 | 207879 12 | 46:11.55 | 3:08.03 | 207880 | 221982 13 | 49:19.58 | 4:09.66 | 221983 | 240723 14 | 53:29.49 | 2:56.60 | 240724 | 253983
Range status and errors
Selected range
Filename Z:\DISTURBED\2005 - Ten Thousand Fists.wav
Peak level 96.6 % Range quality 100.0 % Test CRC B0280CCD Copy CRC B0280CCD Copy OK
No errors occurred
AccurateRip summary
Track 1 accurately ripped (confidence 174) [68453DC5]Track 2 accurately ripped (confidence 175) [9E1F8D3A]Track 3 accurately ripped (confidence 177) [85944E9B]Track 4 accurately ripped (confidence 176) [09F2C78C]Track 5 accurately ripped (confidence 179) [6E80375F]Track 6 accurately ripped (confidence 179) [F9A02DF9]Track 7 accurately ripped (confidence 177) [E8965A33]Track 8 accurately ripped (confidence 177) [7284944A]Track 9 accurately ripped (confidence 177) [4F1D1472]Track 10 accurately ripped (confidence 176) [EB2760FA]Track 11 accurately ripped (confidence 177) [E2D6F250]Track 12 accurately ripped (confidence 177) [2C115C49]Track 13 accurately ripped (confidence 175) [C0C0F332]Track 14 accurately ripped (confidence 175) [313FED14]
All tracks accurately ripped
End of status report

Tour Edition

Страна-производитель диска: Великобритания
Год издания диска: 2006
Издатель (лейбл): Reprise Records
Номер по каталогу: 0093624434726
Тип рипа: image+.cue
Продолжительность: 64:05
Источник (релизер): собственный рип
Наличие сканов в содержимом раздачи: да, PNG 600dpi
Треклист:
01. Ten Thousand Fists [3:33]
02. Just Stop [3:46]
03. Guarded [3:23]
04. Deify [4:18]
05. Stricken [4:07]
06. I'm Alive [4:42]
07. Sons Of Plunder [3:51]
08. Overburdened [5:59]
09. Decadence [3:27]
10. Forgiven [4:15]
11. Land Of Confusion [4:50]
12. Sacred Lie [3:08]
13. Pain Redefined [4:10]
14. Avarice [2:57]
15. Monster [4:05] (bonus track)
16. Two Worlds [3:33] (bonus track)

Лог создания рипа

Exact Audio Copy V0.99 prebeta 5 from 4. May 2009
EAC extraction logfile from 14. May 2011, 20:09
Disturbed / Ten Thousand Fists
Used drive : ASUS DRW-2014L1T Adapter: 4 ID: 0
Read mode : SecureUtilize accurate stream : YesDefeat audio cache : YesMake use of C2 pointers : No
Read offset correction : 6Overread into Lead-In and Lead-Out : NoFill up missing offset samples with silence : YesDelete leading and trailing silent blocks : NoNull samples used in CRC calculations : YesUsed interface : Native Win32 interface for Win NT & 2000
Used output format : Internal WAV RoutinesSample format : 44.100 Hz; 16 Bit; Stereo
TOC of the extracted CD
Track | Start | Length | Start sector | End sector --------------------------------------------------------- 1 | 0:00.00 | 3:33.20 | 0 | 15994 2 | 3:33.20 | 3:46.19 | 15995 | 32963 3 | 7:19.39 | 3:22.42 | 32964 | 48155 4 | 10:42.06 | 4:18.19 | 48156 | 67524 5 | 15:00.25 | 4:07.17 | 67525 | 86066 6 | 19:07.42 | 4:42.04 | 86067 | 107220 7 | 23:49.46 | 3:50.42 | 107221 | 124512 8 | 27:40.13 | 5:59.24 | 124513 | 151461 9 | 33:39.37 | 3:27.04 | 151462 | 166990 10 | 37:06.41 | 4:15.04 | 166991 | 186119 11 | 41:21.45 | 4:50.10 | 186120 | 207879 12 | 46:11.55 | 3:08.03 | 207880 | 221982 13 | 49:19.58 | 4:09.66 | 221983 | 240723 14 | 53:29.49 | 2:57.15 | 240724 | 254013 15 | 56:26.64 | 4:05.21 | 254014 | 272409 16 | 60:32.10 | 3:32.70 | 272410 | 288379
Range status and errors
Selected range
Filename Z:\DISTURBED\2005 - Ten Thousand Fists.wav
Peak level 97.7 % Range quality 100.0 % Test CRC DA893ADF Copy CRC DA893ADF Copy OK
No errors occurred
AccurateRip summary
Track 1 accurately ripped (confidence 16) [2A9DDA0C]Track 2 accurately ripped (confidence 16) [8D0E162C]Track 3 accurately ripped (confidence 15) [3A64C1BA]Track 4 accurately ripped (confidence 15) [86B87E0D]Track 5 accurately ripped (confidence 15) [99062316]Track 6 accurately ripped (confidence 15) [D7866F3F]Track 7 accurately ripped (confidence 15) [2583E323]Track 8 accurately ripped (confidence 15) [5BB2A08C]Track 9 accurately ripped (confidence 15) [7EC7C44A]Track 10 accurately ripped (confidence 15) [23E82C17]Track 11 accurately ripped (confidence 15) [B2C74A8B]Track 12 accurately ripped (confidence 15) [6C3F623C]Track 13 accurately ripped (confidence 16) [F8CDAA6F]Track 14 accurately ripped (confidence 14) [039A60A0]Track 15 accurately ripped (confidence 17) [5A06C496]Track 16 accurately ripped (confidence 17) [6D1EE0BE]
All tracks accurately ripped
End of status report
Доп. информация: Bonus DVD здесь.

Indestructible (2008)

Standard Edition

Страна-производитель диска: EU
Издатель (лейбл): Reprise Records
Номер по каталогу: 0093624988793
Тип рипа: tracks+.cue
Продолжительность: 49:17
Источник (релизер): what.cd by tombs
Наличие сканов в содержимом раздачи: да, PNG 200dpi (частично)
Треклист:
01. Indestructible [4:38]
02. Inside The Fire [3:51]
03. Deceiver [3:49]
04. The Night [4:46]
05. Perfect Insanity [3:57]
06. Haunted [4:42]
07. Enough [4:20]
08. The Curse [3:25]
09. Torn [4:09]
10. Criminal [4:16]
11. Divide [3:36]
12. Fa?ade [3:47]

Лог создания рипа

Exact Audio Copy V0.99 prebeta 4 from 23. January 2008
EAC extraction logfile from 16. February 2009, 11:23
Disturbed / Indestructible
Used drive : IBM CDRW-USB2 Adapter: 4 ID: 0
Read mode : SecureUtilize accurate stream : YesDefeat audio cache : YesMake use of C2 pointers : No
Read offset correction : 685Overread into Lead-In and Lead-Out : NoFill up missing offset samples with silence : YesDelete leading and trailing silent blocks : NoNull samples used in CRC calculations : YesUsed interface : Native Win32 interface for Win NT & 2000Gap handling : Appended to previous track
Used output format : User Defined EncoderSelected bitrate : 128 kBit/sQuality : HighAdd ID3 tag : NoCommand line compressor : C:\Program Files\Exact Audio Copy\Flac\flac.exeAdditional command line options : -V -8 -T "artist=%a" -T "title=%t" -T "album=%g" -T "date=%y" -T "tracknumber=%n" -T "genre=%m" %s
TOC of the extracted CD
Track | Start | Length | Start sector | End sector --------------------------------------------------------- 1 | 0:00.00 | 4:38.02 | 0 | 20851 2 | 4:38.02 | 3:51.36 | 20852 | 38212 3 | 8:29.38 | 3:49.27 | 38213 | 55414 4 | 12:18.65 | 4:46.00 | 55415 | 76864 5 | 17:04.65 | 3:56.42 | 76865 | 94606 6 | 21:01.32 | 4:42.11 | 94607 | 115767 7 | 25:43.43 | 4:19.71 | 115768 | 135263 8 | 30:03.39 | 3:24.41 | 135264 | 150604 9 | 33:28.05 | 4:09.23 | 150605 | 169302 10 | 37:37.28 | 4:15.70 | 169303 | 188497 11 | 41:53.23 | 3:36.24 | 188498 | 204721 12 | 45:29.47 | 3:47.09 | 204722 | 221755
Track 1
Filename C:\EACRips\FLAC\Disturbed - 2008 -Indestructible\01 - Indestructible.wav
Pre-gap length 0:00:02.00
Peak level 100.0 % Track quality 100.0 % Test CRC E6BE8867 Copy CRC E6BE8867 Accurately ripped (confidence 104) [A8187ADF] Copy OK
Track 2
Filename C:\EACRips\FLAC\Disturbed - 2008 -Indestructible\02 - Inside The Fire.wav
Peak level 100.0 % Track quality 100.0 % Test CRC 78FDC7E0 Copy CRC 78FDC7E0 Accurately ripped (confidence 104) [084826C4] Copy OK
Track 3
Filename C:\EACRips\FLAC\Disturbed - 2008 -Indestructible\03 - Deceiver.wav
Peak level 100.0 % Track quality 100.0 % Test CRC 7BBF8FCD Copy CRC 7BBF8FCD Accurately ripped (confidence 104) [06BF2A4A] Copy OK
Track 4
Filename C:\EACRips\FLAC\Disturbed - 2008 -Indestructible\04 - The Night.wav
Peak level 100.0 % Track quality 100.0 % Test CRC 41926FFB Copy CRC 41926FFB Accurately ripped (confidence 103) [843E14EB] Copy OK
Track 5
Filename C:\EACRips\FLAC\Disturbed - 2008 -Indestructible\05 - Perfect Insanity.wav
Peak level 100.0 % Track quality 100.0 % Test CRC 61A7E7FA Copy CRC 61A7E7FA Accurately ripped (confidence 104) [715BE752] Copy OK
Track 6
Filename C:\EACRips\FLAC\Disturbed - 2008 -Indestructible\06 - Haunted.wav
Peak level 100.0 % Track quality 100.0 % Test CRC E7682EF9 Copy CRC E7682EF9 Accurately ripped (confidence 103) [FDA01487] Copy OK
Track 7
Filename C:\EACRips\FLAC\Disturbed - 2008 -Indestructible\07 - Enough.wav
Peak level 100.0 % Track quality 100.0 % Test CRC 44EC70BD Copy CRC 44EC70BD Accurately ripped (confidence 102) [BF88AEBF] Copy OK
Track 8
Filename C:\EACRips\FLAC\Disturbed - 2008 -Indestructible\08 - The Curse.wav
Peak level 100.0 % Track quality 99.9 % Test CRC EFAE0A53 Copy CRC EFAE0A53 Accurately ripped (confidence 102) [26B97D6D] Copy OK
Track 9
Filename C:\EACRips\FLAC\Disturbed - 2008 -Indestructible\09 - Torn.wav
Peak level 100.0 % Track quality 100.0 % Test CRC CA5DE345 Copy CRC CA5DE345 Accurately ripped (confidence 103) [199CC0DE] Copy OK
Track 10
Filename C:\EACRips\FLAC\Disturbed - 2008 -Indestructible\10 - Criminal.wav
Peak level 100.0 % Track quality 100.0 % Test CRC 233C031E Copy CRC 233C031E Accurately ripped (confidence 103) [98CACED7] Copy OK
Track 11
Filename C:\EACRips\FLAC\Disturbed - 2008 -Indestructible\11 - Divide.wav
Peak level 100.0 % Track quality 100.0 % Test CRC 40F567A5 Copy CRC 40F567A5 Accurately ripped (confidence 103) [91C3B1C0] Copy OK
Track 12
Filename C:\EACRips\FLAC\Disturbed - 2008 -Indestructible\12 - Faзade.wav
Peak level 100.0 % Track quality 100.0 % Test CRC D58179B0 Copy CRC D58179B0 Accurately ripped (confidence 101) [EB980500] Copy OK
All tracks accurately ripped
No errors occurred
End of status report

Содержание индексной карты (.CUE)

REM GENRE Alternative Metal / Hard RockREM DATE 2008PERFORMER "Disturbed"TITLE "Indestructible"FILE "01 - Indestructible.wav" WAVE TRACK 01 AUDIO TITLE "Indestructible" PERFORMER "Disturbed" INDEX 01 00:00:00FILE "02 - Inside The Fire.wav" WAVE TRACK 02 AUDIO TITLE "Inside The Fire" PERFORMER "Disturbed" INDEX 01 00:00:00FILE "03 - Deceiver.wav" WAVE TRACK 03 AUDIO TITLE "Deceiver" PERFORMER "Disturbed" INDEX 01 00:00:00FILE "04 - The Night.wav" WAVE TRACK 04 AUDIO TITLE "The Night" PERFORMER "Disturbed" INDEX 01 00:00:00FILE "05 - Perfect Insanity.wav" WAVE TRACK 05 AUDIO TITLE "Perfect Insanity" PERFORMER "Disturbed" INDEX 01 00:00:00FILE "06 - Haunted.wav" WAVE TRACK 06 AUDIO TITLE "Haunted" PERFORMER "Disturbed" INDEX 01 00:00:00FILE "07 - Enough.wav" WAVE TRACK 07 AUDIO TITLE "Enough" PERFORMER "Disturbed" INDEX 01 00:00:00FILE "08 - The Curse.wav" WAVE TRACK 08 AUDIO TITLE "The Curse" PERFORMER "Disturbed" INDEX 01 00:00:00FILE "09 - Torn.wav" WAVE TRACK 09 AUDIO TITLE "Torn" PERFORMER "Disturbed" INDEX 01 00:00:00FILE "10 - Criminal.wav" WAVE TRACK 10 AUDIO TITLE "Criminal" PERFORMER "Disturbed" INDEX 01 00:00:00FILE "11 - Divide.wav" WAVE TRACK 11 AUDIO TITLE "Divide" PERFORMER "Disturbed" INDEX 01 00:00:00FILE "12 - Fa?ade.wav" WAVE TRACK 12 AUDIO TITLE "Fa?ade" PERFORMER "Disturbed" INDEX 01 00:00:00

Limited Edition

Страна-производитель диска: США
Издатель (лейбл): Reprise Records
Номер по каталогу: 0093624987789
Тип рипа: image+.cue
Продолжительность: 52:32
Источник (релизер): собственный рип
Наличие сканов в содержимом раздачи: да, PNG 600dpi (частично)
Треклист:
01. Indestructible [4:38]
02. Inside The Fire [3:51]
03. Deceiver [3:49]
04. The Night [4:46]
05. Perfect Insanity [3:57]
06. Haunted [4:42]
07. Enough [4:20]
08. The Curse [3:25]
09. Torn [4:09]
10. Criminal [4:16]
11. Divide [3:36]
12. Fa?ade [3:49]
13. Run [3:13] (bonus track)

Лог создания рипа

Exact Audio Copy V0.99 prebeta 5 from 4. May 2009
EAC extraction logfile from 7. June 2011, 19:12
Disturbed / Indestructible
Used drive : TSSTcorpCDDVDW TS-L633C Adapter: 1 ID: 0
Read mode : SecureUtilize accurate stream : YesDefeat audio cache : YesMake use of C2 pointers : No
Read offset correction : 6Overread into Lead-In and Lead-Out : NoFill up missing offset samples with silence : YesDelete leading and trailing silent blocks : NoNull samples used in CRC calculations : YesUsed interface : Native Win32 interface for Win NT & 2000
Used output format : Internal WAV RoutinesSample format : 44.100 Hz; 16 Bit; Stereo
TOC of the extracted CD
Track | Start | Length | Start sector | End sector --------------------------------------------------------- 1 | 0:00.00 | 4:38.02 | 0 | 20851 2 | 4:38.02 | 3:51.36 | 20852 | 38212 3 | 8:29.38 | 3:49.27 | 38213 | 55414 4 | 12:18.65 | 4:45.74 | 55415 | 76863 5 | 17:04.64 | 3:56.43 | 76864 | 94606 6 | 21:01.32 | 4:42.11 | 94607 | 115767 7 | 25:43.43 | 4:19.71 | 115768 | 135263 8 | 30:03.39 | 3:24.41 | 135264 | 150604 9 | 33:28.05 | 4:09.23 | 150605 | 169302 10 | 37:37.28 | 4:15.70 | 169303 | 188497 11 | 41:53.23 | 3:36.24 | 188498 | 204721 12 | 45:29.47 | 3:49.06 | 204722 | 221902 13 | 49:18.53 | 3:13.24 | 221903 | 236401
Range status and errors
Selected range
Filename Z:\DISTURBED\2008 - Indestructible.wav
Peak level 100.0 % Range quality 100.0 % Test CRC 6B6E76E9 Copy CRC 6B6E76E9 Copy OK
No errors occurred
AccurateRip summary
Track 1 accurately ripped (confidence 8) [0893E8DF]Track 2 accurately ripped (confidence 8) [6DE92AD0]Track 3 accurately ripped (confidence 8) [8E7CC6D4]Track 4 accurately ripped (confidence 8) [DC8B3987]Track 5 accurately ripped (confidence 8) [45C57540]Track 6 accurately ripped (confidence 8) [F09B154B]Track 7 accurately ripped (confidence 8) [0A9F3EFD]Track 8 accurately ripped (confidence 8) [988828F9]Track 9 accurately ripped (confidence 8) [E096CE2E]Track 10 accurately ripped (confidence 8) [A8DC2AA7]Track 11 accurately ripped (confidence 8) [6323EDDE]Track 12 accurately ripped (confidence 8) [ABBA8FE6]Track 13 accurately ripped (confidence 9) [CB1562E3]
All tracks accurately ripped
End of status report
Доп. информация: Bonus DVD здесь.
Сканы представлены частично. Бокс обернут большим постером, который невозможно сканировать.

Japanese Edition

Страна-производитель диска: Япония
Издатель (лейбл): Reprise Records
Номер по каталогу: 4943674079148
Тип рипа: image+.cue
Продолжительность: 52:42
Источник (релизер): собственный рип
Наличие сканов в содержимом раздачи: да, PNG 600dpi
Треклист:
01. Indestructible [4:38]
02. Inside The Fire [3:51]
03. Deceiver [3:49]
04. The Night [4:46]
05. Perfect Insanity [3:57]
06. Haunted [4:42]
07. Enough [4:20]
08. The Curse [3:25]
09. Torn [4:09]
10. Criminal [4:16]
11. Divide [3:36]
12. Fa?ade [3:48]
13. Parasite [3:24] (bonus track)

Лог создания рипа

Exact Audio Copy V0.99 prebeta 5 from 4. May 2009
EAC extraction logfile from 7. June 2011, 18:38
Disturbed / Indestructible
Used drive : TSSTcorpCDDVDW TS-L633C Adapter: 1 ID: 0
Read mode : SecureUtilize accurate stream : YesDefeat audio cache : YesMake use of C2 pointers : No
Read offset correction : 6Overread into Lead-In and Lead-Out : NoFill up missing offset samples with silence : YesDelete leading and trailing silent blocks : NoNull samples used in CRC calculations : YesUsed interface : Native Win32 interface for Win NT & 2000
Used output format : Internal WAV RoutinesSample format : 44.100 Hz; 16 Bit; Stereo
TOC of the extracted CD
Track | Start | Length | Start sector | End sector --------------------------------------------------------- 1 | 0:00.00 | 4:38.02 | 0 | 20851 2 | 4:38.02 | 3:51.36 | 20852 | 38212 3 | 8:29.38 | 3:49.27 | 38213 | 55414 4 | 12:18.65 | 4:45.74 | 55415 | 76863 5 | 17:04.64 | 3:56.43 | 76864 | 94606 6 | 21:01.32 | 4:42.11 | 94607 | 115767 7 | 25:43.43 | 4:19.71 | 115768 | 135263 8 | 30:03.39 | 3:24.41 | 135264 | 150604 9 | 33:28.05 | 4:09.23 | 150605 | 169302 10 | 37:37.28 | 4:15.70 | 169303 | 188497 11 | 41:53.23 | 3:36.24 | 188498 | 204721 12 | 45:29.47 | 3:48.26 | 204722 | 221847 13 | 49:17.73 | 3:23.50 | 221848 | 237122
Range status and errors
Selected range
Filename Z:\DISTURBED\2008 - Indestructible.wav
Peak level 100.0 % Range quality 100.0 % Test CRC 1117554A Copy CRC 1117554A Copy OK
No errors occurred
AccurateRip summary
Track 1 accurately ripped (confidence 8) [A8187ADF]Track 2 accurately ripped (confidence 8) [084826C4]Track 3 accurately ripped (confidence 8) [06BF2A4A]Track 4 accurately ripped (confidence 8) [843E14EB]Track 5 accurately ripped (confidence 8) [62A7F286]Track 6 accurately ripped (confidence 8) [FDA01487]Track 7 accurately ripped (confidence 8) [BF88AEBF]Track 8 accurately ripped (confidence 8) [26B97D6D]Track 9 accurately ripped (confidence 7) [199CC0DE]Track 10 accurately ripped (confidence 8) [98CACED7]Track 11 accurately ripped (confidence 8) [91C3B1C0]Track 12 accurately ripped (confidence 8) [EB980500]Track 13 accurately ripped (confidence 9) [A8A5B5AD]
All tracks accurately ripped
End of status report

Asylum (2010)

Standard Edition

Страна-производитель диска: EU
Издатель (лейбл): Reprise Records
Номер по каталогу: 0093624966487
Тип рипа: image+.cue
Продолжительность: 52:57
Источник (релизер): emish
Наличие сканов в содержимом раздачи: да, JPG 300 dpi
Треклист:
01. Remnants [2:44]
02. Asylum [4:36]
03. The Infection [4:09]
04. Warrior [3:25]
05. Another Way To Die [4:13]
06. Never Again [3:34]
07. The Animal [4:14]
08. Crucified [4:37]
09. Serpentine [4:10]
10. My Child [3:18]
11. Sacrifice [4:00]
12. Innocence [4:31]
13. ISHFWILF [5:26]

Лог создания рипа

Exact Audio Copy V0.99 prebeta 5 from 4. May 2009
EAC extraction logfile from 16. October 2010, 22:06
Disturbed / Asylum
Used drive : TSSTcorpCDDVDW SH-S222A Adapter: 0 ID: 0
Read mode : SecureUtilize accurate stream : YesDefeat audio cache : YesMake use of C2 pointers : No
Read offset correction : 6Overread into Lead-In and Lead-Out : NoFill up missing offset samples with silence : YesDelete leading and trailing silent blocks : NoNull samples used in CRC calculations : YesUsed interface : Native Win32 interface for Win NT & 2000
Used output format : Internal WAV RoutinesSample format : 44.100 Hz; 16 Bit; Stereo
TOC of the extracted CD
Track | Start | Length | Start sector | End sector --------------------------------------------------------- 1 | 0:00.00 | 2:43.50 | 0 | 12274 2 | 2:43.50 | 4:36.17 | 12275 | 32991 3 | 7:19.67 | 4:08.63 | 32992 | 51654 4 | 11:28.55 | 3:24.62 | 51655 | 67016 5 | 14:53.42 | 4:13.29 | 67017 | 86020 6 | 19:06.71 | 3:33.53 | 86021 | 102048 7 | 22:40.49 | 4:13.61 | 102049 | 121084 8 | 26:54.35 | 4:36.74 | 121085 | 141858 9 | 31:31.34 | 4:09.57 | 141859 | 160590 10 | 35:41.16 | 3:18.04 | 160591 | 175444 11 | 38:59.20 | 4:00.06 | 175445 | 193450 12 | 42:59.26 | 4:31.21 | 193451 | 213796 13 | 47:30.47 | 5:26.05 | 213797 | 238251
Range status and errors
Selected range
Filename D:\emish\RuTracker\Disturbed - Asylum (2010)\Disturbed - Asylum.wav
Peak level 100.0 % Range quality 100.0 % Test CRC 189C20B6 Copy CRC 189C20B6 Copy OK
No errors occurred
AccurateRip summary
Track 1 accurately ripped (confidence 15) [359BF434]Track 2 accurately ripped (confidence 17) [F32AA673]Track 3 accurately ripped (confidence 16) [7ADC6AE9]Track 4 accurately ripped (confidence 17) [286D1BE1]Track 5 accurately ripped (confidence 17) [057FCCB6]Track 6 accurately ripped (confidence 17) [91016EF8]Track 7 accurately ripped (confidence 17) [803D75D1]Track 8 accurately ripped (confidence 17) [AB01794D]Track 9 accurately ripped (confidence 16) [1A3F389F]Track 10 accurately ripped (confidence 17) [7FF02B5B]Track 11 accurately ripped (confidence 17) [4C08607F]Track 12 accurately ripped (confidence 16) [23D4C8BF]Track 13 not present in database
12 track(s) accurately ripped 1 track(s) not present in the AccurateRip database
Some tracks could not be verified as accurate
End of status report
Доп. информация: Трек 13 не указан на обложке.

Limited Edition

Страна-производитель диска: США
Издатель (лейбл): Reprise Records
Номер по каталогу: 0093624964179
Тип рипа: image+.cue
Продолжительность: 63:11
Источник (релизер): xuim
Наличие сканов в содержимом раздачи: да, JPG (частично)
Треклист:
01. Remnants [2:44]
02. Asylum [4:36]
03. The Infection [4:09]
04. Warrior [3:25]
05. Another Way To Die [4:13]
06. Never Again [3:34]
07. The Animal [4:14]
08. Crucified [4:37]
09. Serpentine [4:10]
10. My Child [3:18]
11. Sacrifice [4:00]
12. Innocence [4:31]
13. ISHFWILF [5:28]
14. Down With The Sickness [Live] [5:55] (bonus track)
15. Stricken [Live] [4:17] (bonus track)

Лог создания рипа

Exact Audio Copy V1.0 beta 1 from 15. November 2010
EAC extraction logfile from 11. June 2011, 3:21
Disturbed / Asylum (Deluxe Edition)
Used drive : Optiarc DVD RW AD-7191A Adapter: 4 ID: 0
Read mode : SecureUtilize accurate stream : YesDefeat audio cache : YesMake use of C2 pointers : No
Read offset correction : 6Overread into Lead-In and Lead-Out : NoFill up missing offset samples with silence : YesDelete leading and trailing silent blocks : NoNull samples used in CRC calculations : YesUsed interface : Native Win32 interface for Win NT & 2000
Used output format : User Defined EncoderSelected bitrate : 1024 kBit/sQuality : HighAdd ID3 tag : NoCommand line compressor : C:\Program Files\Exact Audio Copy\Flac\flac.exeAdditional command line options : -V -8 -T "artist=%a" -T "title=%t" -T "album=%g" -T "date=%y" -T "tracknumber=%n" -T "genre=%m" %s
TOC of the extracted CD
Track | Start | Length | Start sector | End sector --------------------------------------------------------- 1 | 0:00.00 | 2:43.50 | 0 | 12274 2 | 2:43.50 | 4:36.17 | 12275 | 32991 3 | 7:19.67 | 4:08.63 | 32992 | 51654 4 | 11:28.55 | 3:24.62 | 51655 | 67016 5 | 14:53.42 | 4:13.29 | 67017 | 86020 6 | 19:06.71 | 3:33.53 | 86021 | 102048 7 | 22:40.49 | 4:13.61 | 102049 | 121084 8 | 26:54.35 | 4:36.74 | 121085 | 141858 9 | 31:31.34 | 4:09.57 | 141859 | 160590 10 | 35:41.16 | 3:18.04 | 160591 | 175444 11 | 38:59.20 | 4:00.06 | 175445 | 193450 12 | 42:59.26 | 4:31.21 | 193451 | 213796 13 | 47:30.47 | 5:28.04 | 213797 | 238400 14 | 52:58.51 | 5:55.21 | 238401 | 265046 15 | 58:53.72 | 4:17.27 | 265047 | 284348
Range status and errors
Selected range
Filename C:\Documents and Settings\LEXUS\My Documents\My Music\Disturbed\Asylum (Deluxe Edition) 2010 FLAC\Disturbed - Asylum (Deluxe Edition).wav
Peak level 100.0 % Extraction speed 0.5 X Range quality 100.0 % Test CRC 7B4692BD Copy CRC 7B4692BD Copy OK
No errors occurred
AccurateRip summary
Track 1 accurately ripped (confidence 7) [0F0279F3]Track 2 accurately ripped (confidence 7) [86047180]Track 3 accurately ripped (confidence 7) [C098C583]Track 4 accurately ripped (confidence 7) [5F5DB0D4]Track 5 accurately ripped (confidence 7) [4587A929]Track 6 accurately ripped (confidence 7) [9C7F6EAC]Track 7 accurately ripped (confidence 7) [D3403613]Track 8 accurately ripped (confidence 7) [E85DE0B5]Track 9 accurately ripped (confidence 7) [51026CAD]Track 10 accurately ripped (confidence 7) [B35C7441]Track 11 accurately ripped (confidence 7) [FABEDBA5]Track 12 accurately ripped (confidence 7) [9FF379C5]Track 13 not present in databaseTrack 14 accurately ripped (confidence 7) [BE85823B]Track 15 accurately ripped (confidence 7) [948A5FED]
14 track(s) accurately ripped 1 track(s) not present in the AccurateRip database
Some tracks could not be verified as accurate
End of status report
Доп. информация: Трек 13 не указан на обложке. Bonus DVD здесь.

Japanese Edition

Страна-производитель диска: Япония
Издатель (лейбл): Reprise Records
Номер по каталогу: 4943674100446
Тип рипа: image+.cue
Продолжительность: 57:06
Источник (релизер): собственный рип
Наличие сканов в содержимом раздачи: да, PNG 600dpi
Треклист:
01. Remnants [2:44]
02. Asylum [4:36]
03. The Infection [4:09]
04. Warrior [3:25]
05. Another Way To Die [4:13]
06. Never Again [3:34]
07. The Animal [4:14]
08. Crucified [4:37]
09. Serpentine [4:10]
10. My Child [3:18]
11. Sacrifice [4:00]
12. Innocence [4:31]
13. ISHFWILF [5:28]
14. Leave It Alone [4:07] (bonus track)
Доп. информация: Треки 13 и 14 не указаны на обложке.

Лог создания рипа

Exact Audio Copy V0.99 prebeta 5 from 4. May 2009
EAC extraction logfile from 7. June 2011, 19:43
Disturbed / Asylum
Used drive : TSSTcorpCDDVDW TS-L633C Adapter: 1 ID: 0
Read mode : SecureUtilize accurate stream : YesDefeat audio cache : YesMake use of C2 pointers : No
Read offset correction : 6Overread into Lead-In and Lead-Out : NoFill up missing offset samples with silence : YesDelete leading and trailing silent blocks : NoNull samples used in CRC calculations : YesUsed interface : Native Win32 interface for Win NT & 2000
Used output format : Internal WAV RoutinesSample format : 44.100 Hz; 16 Bit; Stereo
TOC of the extracted CD
Track | Start | Length | Start sector | End sector --------------------------------------------------------- 1 | 0:00.00 | 2:43.50 | 0 | 12274 2 | 2:43.50 | 4:36.17 | 12275 | 32991 3 | 7:19.67 | 4:08.63 | 32992 | 51654 4 | 11:28.55 | 3:24.62 | 51655 | 67016 5 | 14:53.42 | 4:13.29 | 67017 | 86020 6 | 19:06.71 | 3:33.53 | 86021 | 102048 7 | 22:40.49 | 4:13.61 | 102049 | 121084 8 | 26:54.35 | 4:36.74 | 121085 | 141858 9 | 31:31.34 | 4:09.57 | 141859 | 160590 10 | 35:41.16 | 3:18.04 | 160591 | 175444 11 | 38:59.20 | 4:00.06 | 175445 | 193450 12 | 42:59.26 | 4:31.21 | 193451 | 213796 13 | 47:30.47 | 5:28.04 | 213797 | 238400 14 | 52:58.51 | 4:06.62 | 238401 | 256912
Range status and errors
Selected range
Filename Z:\DISTURBED\2010 - Asylum.wav
Peak level 100.0 % Range quality 100.0 % Test CRC EE9F071F Copy CRC EE9F071F Copy OK
No errors occurred
AccurateRip summary
Track 1 accurately ripped (confidence 2) [359BF434]Track 2 accurately ripped (confidence 2) [F32AA673]Track 3 accurately ripped (confidence 2) [7ADC6AE9]Track 4 accurately ripped (confidence 2) [286D1BE1]Track 5 accurately ripped (confidence 2) [057FCCB6]Track 6 accurately ripped (confidence 2) [91016EF8]Track 7 accurately ripped (confidence 2) [803D75D1]Track 8 accurately ripped (confidence 2) [AB01794D]Track 9 accurately ripped (confidence 2) [1A3F389F]Track 10 accurately ripped (confidence 2) [7FF02B5B]Track 11 accurately ripped (confidence 2) [4C08607F]Track 12 accurately ripped (confidence 2) [23D4C8BF]Track 13 not present in databaseTrack 14 accurately ripped (confidence 2) [FFD33BE5]
13 track(s) accurately ripped 1 track(s) not present in the AccurateRip database
Some tracks could not be verified as accurate
End of status report

-
-Синглы

Voices (CD1) (2001)

Сингл с альбома: The Sickness
Страна-производитель диска: Великобритания
Издатель (лейбл): Giant Records
Номер по каталогу: 0743218464126
Тип рипа: tracks+.cue
Продолжительность: 12:33
Источник (релизер): what.cd by vtwizzie
Наличие сканов в содержимом раздачи: да, JPG (частично)
Треклист:
01. Voices [3:13]
02. Stupify [Live] [5:26]
03. The Game [Live] [3:54]

Лог создания рипа

Exact Audio Copy V1.0 beta 3 from 29. August 2011
EAC extraction logfile from 14. August 2012, 16:40
Disturbed / Voices CD1
Used drive : ATAPI iHAS424 B Adapter: 0 ID: 2
Read mode : SecureUtilize accurate stream : YesDefeat audio cache : YesMake use of C2 pointers : No
Read offset correction : 6Overread into Lead-In and Lead-Out : NoFill up missing offset samples with silence : YesDelete leading and trailing silent blocks : NoNull samples used in CRC calculations : YesUsed interface : Native Win32 interface for Win NT & 2000Gap handling : Appended to previous track
Used output format : User Defined EncoderSelected bitrate : 1024 kBit/sQuality : HighAdd ID3 tag : NoCommand line compressor : C:\Program Files (x86)\Exact Audio Copy\Flac\flac.exeAdditional command line options : -8 -V -T "ARTIST=%artist%" -T "TITLE=%title%" -T "ALBUM=%albumtitle%" -T "DATE=%year%" -T "TRACKNUMBER=%tracknr%" -T "GENRE=%genre%" -T "PERFORMER=%albuminterpret%" -T "COMPOSER=%composer%" %haslyrics%--tag-from-file=LYRICS="%lyricsfile%"%haslyrics% -T "ALBUMARTIST=%albumartist%" -T "DISCNUMBER=%cdnumber%" -T "TOTALDISCS=%totalcds%" -T "TOTALTRACKS=%numtracks%" -T "COMMENT=%comment%" %source% -o %dest%
TOC of the extracted CD
Track | Start | Length | Start sector | End sector --------------------------------------------------------- 1 | 0:00.32 | 3:13.00 | 32 | 14506 2 | 3:13.32 | 5:26.25 | 14507 | 38981 3 | 8:39.57 | 3:54.00 | 38982 | 56531
Track 1
Filename D:\EAC Rips\Disturbed - Voices Single (2001) [FLAC]\01 - Voices.wav
Pre-gap length 0:00:02.42
Peak level 99.9 % Extraction speed 3.5 X Track quality 100.0 % Test CRC F4AEF5B2 Copy CRC F4AEF5B2 Accurately ripped (confidence 1) [7376B5CE] (AR v1) Copy OK
Track 2
Filename D:\EAC Rips\Disturbed - Voices Single (2001) [FLAC]\02 - Stupify (Live).wav
Pre-gap length 0:00:00.46
Peak level 99.2 % Extraction speed 3.6 X Track quality 99.9 % Test CRC 76AEBF00 Copy CRC 76AEBF00 Accurately ripped (confidence 1) [2A206907] (AR v1) Copy OK
Track 3
Filename D:\EAC Rips\Disturbed - Voices Single (2001) [FLAC]\03 - The Game (Live).wav
Pre-gap length 0:00:00.42
Peak level 99.9 % Extraction speed 4.5 X Track quality 100.0 % Test CRC 77A1DE82 Copy CRC 77A1DE82 Accurately ripped (confidence 1) [44CDC0D6] (AR v1) Copy OK
All tracks accurately ripped
No errors occurred
End of status report
==== Log checksum 0940F9CD6AC4F0C13B2212DCBC0117306F5164721BD539EEB77FD02105A0148E ====

Содержание индексной карты (.CUE)

REM GENRE Alternative Metal / Hard RockREM DATE 2001PERFORMER "Disturbed"TITLE "Voices"FILE "01 - Voices.wav" WAVE TRACK 01 AUDIO TITLE "Voices" PERFORMER "Disturbed" ISRC USGI19900179 PREGAP 00:00:32 INDEX 01 00:00:00 TRACK 02 AUDIO TITLE "Stupify [Live]" PERFORMER "Disturbed" ISRC USGI10000285 INDEX 00 03:12:40FILE "02 - Stupify [Live].wav" WAVE INDEX 01 00:00:00 TRACK 03 AUDIO TITLE "The Game [Live]" PERFORMER "Disturbed" ISRC USGI10000135 INDEX 00 05:25:68FILE "03 - The Game [Live].wav" WAVE INDEX 01 00:00:00

Stupify (Promo) (2000)

Сингл с альбома: The Sickness
Страна-производитель диска: США
Издатель (лейбл): Giant Records
Номер по каталогу: PRO-CDR-100434
Тип рипа: tracks+.cue
Продолжительность: 5:09
Источник (релизер): собственный рип
Наличие сканов в содержимом раздачи: да, PNG 600dpi
Треклист:
01. Stupify [The Forbidden "Fu" Mix] [5:09]

Лог создания рипа

Exact Audio Copy V1.0 beta 3 from 29. August 2011
EAC extraction logfile from 22. November 2011, 0:16
Disturbed / Stupify
Used drive : TSSTcorpCDDVDW TS-L633C Adapter: 1 ID: 0
Read mode : SecureUtilize accurate stream : YesDefeat audio cache : YesMake use of C2 pointers : No
Read offset correction : 6Overread into Lead-In and Lead-Out : NoFill up missing offset samples with silence : YesDelete leading and trailing silent blocks : NoNull samples used in CRC calculations : YesUsed interface : Native Win32 interface for Win NT & 2000Gap handling : Appended to previous track
Used output format : User Defined EncoderSelected bitrate : 768 kBit/sQuality : HighAdd ID3 tag : NoCommand line compressor : C:\Program Files (x86)\Exact Audio Copy\FLAC\FLAC.EXEAdditional command line options : -8 -V -T "ARTIST=%artist%" -T "TITLE=%title%" -T "ALBUM=%albumtitle%" -T "DATE=%year%" -T "TRACKNUMBER=%tracknr%" -T "GENRE=%genre%" %source% -o %dest%
TOC of the extracted CD
Track | Start | Length | Start sector | End sector --------------------------------------------------------- 1 | 0:00.32 | 5:08.55 | 32 | 23186
Track 1
Filename Z:\DISTURBED\2000 - Stupify\01 - Stupify [The Forbidden ''Fu'' Mix].wav
Pre-gap length 0:00:02.32
Peak level 96.5 % Extraction speed 2.3 X Track quality 99.9 % Test CRC 3DCA031A Copy CRC 3DCA031A Track not present in AccurateRip database Copy OK
None of the tracks are present in the AccurateRip database
No errors occurred
End of status report
==== Log checksum 27F72C60740EF3281B392967AA4615427D2781088FD1B425EDDFDD7C94903AAF ====

Содержание индексной карты (.CUE)

REM GENRE Alternative Metal / Hard RockREM DATE 2000CATALOG 0000000000000PERFORMER "Disturbed"TITLE "Stupify"FILE "00 - Stupify [The Forbidden ''Fu'' Mix] [HTOA].wav" WAVE TRACK 01 AUDIO TITLE "Stupify [The Forbidden "Fu" Mix]" PERFORMER "Disturbed" ISRC USGI10000259 INDEX 00 00:00:00FILE "01 - Stupify [The Forbidden ''Fu'' Mix].wav" WAVE INDEX 01 00:00:00

Stricken (2005)

CD1

Сингл с альбома: Ten Thousand Fists
Страна-производитель диска: Великобритания
Издатель (лейбл): Reprise Records
Номер по каталогу: 0054391592422
Тип рипа: image+.cue
Продолжительность: 7:39
Источник (релизер): собственный рип
Наличие сканов в содержимом раздачи: да, PNG 600dpi
Треклист:
01. Stricken [4:07]
02. Dehumanized [3:32]

Лог создания рипа

Exact Audio Copy V0.99 prebeta 5 from 4. May 2009
EAC extraction logfile from 4. June 2011, 16:19
Disturbed / Stricken, Pt.1
Used drive : TSSTcorpCDDVDW TS-L633C Adapter: 1 ID: 0
Read mode : SecureUtilize accurate stream : YesDefeat audio cache : YesMake use of C2 pointers : No
Read offset correction : 6Overread into Lead-In and Lead-Out : NoFill up missing offset samples with silence : YesDelete leading and trailing silent blocks : NoNull samples used in CRC calculations : YesUsed interface : Native Win32 interface for Win NT & 2000
Used output format : Internal WAV RoutinesSample format : 44.100 Hz; 16 Bit; Stereo
TOC of the extracted CD
Track | Start | Length | Start sector | End sector --------------------------------------------------------- 1 | 0:00.00 | 4:07.00 | 0 | 18524 2 | 4:07.00 | 3:31.65 | 18525 | 34414
Range status and errors
Selected range
Filename Z:\DISTURBED\2005 - Stricken, Pt.1.wav
Peak level 100.0 % Range quality 100.0 % Test CRC EFCB81A1 Copy CRC EFCB81A1 Copy OK
No errors occurred
AccurateRip summary
Track 1 accurately ripped (confidence 2) [2A529320]Track 2 accurately ripped (confidence 4) [C57B692A]
All tracks accurately ripped
End of status report

CD2

Сингл с альбома: Ten Thousand Fists
Страна-производитель диска: Великобритания
Издатель (лейбл): Reprise Records
Номер по каталогу: 0093624283928
Тип рипа: image+.cue
Продолжительность: 12:24
Источник (релизер): собственный рип
Наличие сканов в содержимом раздачи: нет
Треклист:
01. Stricken [4:07]
02. Hell [4:15]
03. Darkness [Live] [4:01]

Лог создания рипа

Exact Audio Copy V0.99 prebeta 5 from 4. May 2009
EAC extraction logfile from 27. September 2009, 14:38
Disturbed / Stricken, Pt.2
Used drive : Optiarc DVD RW AD-7170S Adapter: 2 ID: 1
Read mode : SecureUtilize accurate stream : YesDefeat audio cache : YesMake use of C2 pointers : No
Read offset correction : 48Overread into Lead-In and Lead-Out : NoFill up missing offset samples with silence : YesDelete leading and trailing silent blocks : NoNull samples used in CRC calculations : YesUsed interface : Native Win32 interface for Win NT & 2000
Used output format : Internal WAV RoutinesSample format : 44.100 Hz; 16 Bit; Stereo
TOC of the extracted CD
Track | Start | Length | Start sector | End sector --------------------------------------------------------- 1 | 0:00.00 | 4:07.00 | 0 | 18524 2 | 4:07.00 | 4:15.10 | 18525 | 37659 3 | 8:22.10 | 4:01.34 | 37660 | 55768
Range status and errors
Selected range
Filename D:\DISTURBED\2005 - Stricken, Pt.2.wav
Peak level 98.5 % Range quality 99.9 % Test CRC ABB376DE Copy CRC ABB376DE Copy OK
No errors occurred
AccurateRip summary
Track 1 accurately ripped (confidence 1) [73F133F1]Track 2 accurately ripped (confidence 3) [0DB9C653]Track 3 accurately ripped (confidence 1) [32AD3305]
All tracks accurately ripped
End of status report

Land Of Confusion (2006) (ECD)

Сингл с альбома: Ten Thousand Fists
Страна-производитель диска: Великобритания
Издатель (лейбл): Reprise Records
Номер по каталогу: 0093624298427
Тип рипа: image+.cue
Продолжительность: 8:47
Источник (релизер): собственный рип
Наличие сканов в содержимом раздачи: да, PNG 600dpi
Треклист:
01. Land Of Confusion [4:49]
02. Sickened [3:58]

Лог создания рипа

Exact Audio Copy V0.99 prebeta 5 from 4. May 2009
EAC extraction logfile from 7. June 2011, 20:58
Disturbed / Land Of Confusion
Used drive : TSSTcorpCDDVDW TS-L633C Adapter: 1 ID: 0
Read mode : SecureUtilize accurate stream : YesDefeat audio cache : YesMake use of C2 pointers : No
Read offset correction : 6Overread into Lead-In and Lead-Out : NoFill up missing offset samples with silence : YesDelete leading and trailing silent blocks : NoNull samples used in CRC calculations : YesUsed interface : Native Win32 interface for Win NT & 2000
Used output format : Internal WAV RoutinesSample format : 44.100 Hz; 16 Bit; Stereo
TOC of the extracted CD
Track | Start | Length | Start sector | End sector --------------------------------------------------------- 1 | 0:01.00 | 4:49.01 | 75 | 21750 2 | 4:50.01 | 3:58.27 | 21751 | 39627 3 | 11:20.28 | 10:39.27 | 51028 | 98979
Range status and errors
Selected range
Filename Z:\DISTURBED\2006 - Land Of Confusion.wav
Peak level 97.8 % Range quality 100.0 % Test CRC 27F6EEC5 Copy CRC 27F6EEC5 Copy OK
No errors occurred
AccurateRip summary
Track 1 accurately ripped (confidence 2) [923CB58B]Track 2 accurately ripped (confidence 5) [90A1D280]
All tracks accurately ripped
End of status report

Бонус

На диске присутствует клип Land Of Confusion (файл DISTURBED.mpg).
Продолжительность: 4:47
Формат: MPEG Video File
Видео кодек: MPEG1 Video
Аудио кодек: MPEG Audio
Видео: MPEG1 Video, 352x28, 25.00fps, 1767kbps
Аудио: MPEG Audio, 44.1kHz, stereo, 128kbps

Скриншоты

Примечание: файл INTRO.mpg проигрывается в меню при автозапуске; тех.данные файла уточнить не удалось.

Another Way To Die (2010)

Сингл с альбома: Asylum
Страна-производитель диска: США
Издатель (лейбл): Reprise Records
Номер по каталогу: 0054391983312
Тип рипа: image+.cue
Продолжительность: 8:39
Источник (релизер): собственный рип
Наличие сканов в содержимом раздачи: да, PNG 600dpi
Треклист:
01. Another Way To Die [4:14]
02. Living After Midnight [4:26]

Лог создания рипа

Exact Audio Copy V0.99 prebeta 5 from 4. May 2009
EAC extraction logfile from 7. June 2011, 21:17
Disturbed / Another Way To Die
Used drive : TSSTcorpCDDVDW TS-L633C Adapter: 1 ID: 0
Read mode : SecureUtilize accurate stream : YesDefeat audio cache : YesMake use of C2 pointers : No
Read offset correction : 6Overread into Lead-In and Lead-Out : NoFill up missing offset samples with silence : YesDelete leading and trailing silent blocks : NoNull samples used in CRC calculations : YesUsed interface : Native Win32 interface for Win NT & 2000
Used output format : Internal WAV RoutinesSample format : 44.100 Hz; 16 Bit; Stereo
TOC of the extracted CD
Track | Start | Length | Start sector | End sector --------------------------------------------------------- 1 | 0:00.00 | 4:13.61 | 0 | 19035 2 | 4:13.61 | 4:25.47 | 19036 | 38957
Range status and errors
Selected range
Filename Z:\DISTURBED\2010 - Another Way To Die.wav
Peak level 100.0 % Range quality 100.0 % Test CRC 0E6FAD7A Copy CRC 0E6FAD7A Copy OK
No errors occurred
AccurateRip summary
Track 1 accurately ripped (confidence 3) [3C6A3436]Track 2 accurately ripped (confidence 3) [A649830F]
All tracks accurately ripped
End of status report

-
-Сборники

Disturbed (2010)

Страна-производитель диска: Нидерланды
Издатель (лейбл): Reprise Records
Номер по каталогу: 0093624966296
Тип рипа: image+.cue
Продолжительность: 27:36
Источник (релизер): maximus_2008
Наличие сканов в содержимом раздачи: да, JPG (частично)
Треклист:
01. Down With The Sickness [3:37]
02. Stupify [4:07]
03. Prayer [3:41]
04. Stricken [4:07]
05. Ten Thousand Fists [3:33]
06. Inside The Fire [3:53]
07. Indestructible [4:38]

Лог создания рипа

Exact Audio Copy V0.99 prebeta 5 from 4. May 2009
Отчёт EAC об извлечении, выполненном 28. июня 2010, 0:04
Disturbed / Disturbed
Дисковод: PLEXTOR DVDR PX-860A Adapter: 0 ID: 0
Режим чтения : ДостоверностьИспользование точного потока : ДаОтключение кэша аудио : ДаИспользование указателей C2 : Нет
Коррекция смещения при чтении : 96Способность читать области Lead-in и Lead-out : НетЗаполнение пропущенных сэмплов тишиной : ДаУдаление блоков с тишиной в начале и конце : НетПри вычислениях CRC использовались нулевые сэмплы : ДаИнтерфейс : Установленный внешний ASPI-интерфейс
Выходной формат : Monkey's Audio (без потерь)Выбранный битрейт : Normal Lossless CompressionКачество : ВысокийДобавление ID3-тэга : ДаУтилита сжатия : C:\Program Files\Monkey's Audio\MAC.exe
TOC извлечённого CD
Трек | Старт | Длительность | Начальный сектор | Конечный сектор --------------------------------------------------------------------- 1 | 0:00.00 | 3:36.41 | 0 | 16240 2 | 3:36.41 | 4:06.68 | 16241 | 34758 3 | 7:43.34 | 3:40.47 | 34759 | 51305 4 | 11:24.06 | 4:07.16 | 51306 | 69846 5 | 15:31.22 | 3:33.31 | 69847 | 85852 6 | 19:04.53 | 3:53.10 | 85853 | 103337 7 | 22:57.63 | 4:38.01 | 103338 | 124188
Характеристики диапазона извлечения и сообщения об ошибках
Выбранный диапазон
Имя файла J:\MUSIC\Disturbed - Disturbed.wav
Пиковый уровень 100.0 % Качество диапазона 99.8 % CRC копии BBD78C26 Копирование... OK
Ошибок не произошло
AccurateRip: сводка
Трек 1 точность не определена (достоверность 1) [99FED22F], AccurateRip вернул [B7F9E35F]Трек 2 точность не определена (достоверность 1) [96E19510], AccurateRip вернул [7C0E1330]Трек 3 точность не определена (достоверность 1) [BE110851], AccurateRip вернул [EB830261]Трек 4 точность не определена (достоверность 1) [87CE9AED], AccurateRip вернул [0A3CDD9D]Трек 5 точность не определена (достоверность 1) [B044BDE9], AccurateRip вернул [7F3D6429]Трек 6 точность не определена (достоверность 1) [C308E70B], AccurateRip вернул [9286F7BB]Трек 7 точность не определена (достоверность 1) [40ACC1DF], AccurateRip вернул [3CD151DF]
Ни один трек не прошёл проверки на точностьВ вашей базе может быть иной вариант штамповки диска
Конец отчёта

The Lost Children (2011)

Страна-производитель диска: США
Издатель (лейбл): Reprise Records
Номер по каталогу: 0093624954897
Тип рипа: tracks+.cue
Продолжительность: 60:58
Источник (релизер): собственный рип
Наличие сканов в содержимом раздачи: да, PNG 600dpi
Треклист:
01. Hell [4:15]
02. A Welcome Burden [3:32]
03. This Moment [3:06]
04. Old Friend [3:35]
05. Monster [4:04]
06. Run [3:13]
07. Leave It Alone [4:07]
08. Two Worlds [3:31]
09. God Of The Mind [3:05]
10. Sickened [3:59]
11. Mine [5:04]
12. Parasite [3:24]
13. Dehumanized [3:32]
14. 3 [4:02]
15. Midlife Crisis [4:04]
16. Living After Midnight [4:25]

Лог создания рипа

Exact Audio Copy V1.0 beta 3 from 29. August 2011
EAC extraction logfile from 20. December 2011, 14:42
Disturbed / The Lost Children
Used drive : TSSTcorpCDDVDW TS-L633C Adapter: 1 ID: 0
Read mode : SecureUtilize accurate stream : YesDefeat audio cache : YesMake use of C2 pointers : No
Read offset correction : 6Overread into Lead-In and Lead-Out : NoFill up missing offset samples with silence : YesDelete leading and trailing silent blocks : NoNull samples used in CRC calculations : YesUsed interface : Native Win32 interface for Win NT & 2000Gap handling : Appended to previous track
Used output format : User Defined EncoderSelected bitrate : 768 kBit/sQuality : HighAdd ID3 tag : NoCommand line compressor : C:\Program Files (x86)\Exact Audio Copy\FLAC\FLAC.EXEAdditional command line options : -8 -V -T "ARTIST=%artist%" -T "TITLE=%title%" -T "ALBUM=%albumtitle%" -T "DATE=%year%" -T "TRACKNUMBER=%tracknr%" -T "GENRE=%genre%" %source% -o %dest%
TOC of the extracted CD
Track | Start | Length | Start sector | End sector --------------------------------------------------------- 1 | 0:00.00 | 4:15.34 | 0 | 19158 2 | 4:15.34 | 3:31.60 | 19159 | 35043 3 | 7:47.19 | 3:05.71 | 35044 | 48989 4 | 10:53.15 | 3:35.35 | 48990 | 65149 5 | 14:28.50 | 4:04.00 | 65150 | 83449 6 | 18:32.50 | 3:12.61 | 83450 | 97910 7 | 21:45.36 | 4:06.61 | 97911 | 116421 8 | 25:52.22 | 3:30.62 | 116422 | 132233 9 | 29:23.09 | 3:04.50 | 132234 | 146083 10 | 32:27.59 | 3:58.71 | 146084 | 164004 11 | 36:26.55 | 5:04.22 | 164005 | 186826 12 | 41:31.02 | 3:23.62 | 186827 | 202113 13 | 44:54.64 | 3:32.14 | 202114 | 218027 14 | 48:27.03 | 4:01.69 | 218028 | 236171 15 | 52:28.72 | 4:03.54 | 236172 | 254450 16 | 56:32.51 | 4:25.21 | 254451 | 274346
Track 1
Filename Z:\DISTURBED\2011 - The Lost Children\01 - Hell.wav
Pre-gap length 0:00:02.00
Peak level 92.3 % Extraction speed 2.7 X Track quality 100.0 % Test CRC 1A33BD51 Copy CRC 1A33BD51 Accurately ripped (confidence 4) [C6DBAD82] (AR v1) Copy OK
Track 2
Filename Z:\DISTURBED\2011 - The Lost Children\02 - A Welcome Burden.wav
Peak level 100.0 % Extraction speed 2.4 X Track quality 99.9 % Test CRC 92855407 Copy CRC 92855407 Accurately ripped (confidence 4) [FFD0DD5D] (AR v1) Copy OK
Track 3
Filename Z:\DISTURBED\2011 - The Lost Children\03 - This Moment.wav
Peak level 98.9 % Extraction speed 3.0 X Track quality 100.0 % Test CRC 1A789B49 Copy CRC 1A789B49 Accurately ripped (confidence 4) [839153B7] (AR v1) Copy OK
Track 4
Filename Z:\DISTURBED\2011 - The Lost Children\04 - Old Friend.wav
Peak level 100.0 % Extraction speed 2.7 X Track quality 99.9 % Test CRC 021F490B Copy CRC 021F490B Accurately ripped (confidence 4) [87378B9D] (AR v1) Copy OK
Track 5
Filename Z:\DISTURBED\2011 - The Lost Children\05 - Monster.wav
Peak level 98.9 % Extraction speed 3.0 X Track quality 99.9 % Test CRC 9BB4B688 Copy CRC 9BB4B688 Accurately ripped (confidence 4) [AAE8BA39] (AR v1) Copy OK
Track 6
Filename Z:\DISTURBED\2011 - The Lost Children\06 - Run.wav
Peak level 100.0 % Extraction speed 3.6 X Track quality 100.0 % Test CRC BC77C70A Copy CRC BC77C70A Accurately ripped (confidence 4) [F5745732] (AR v1) Copy OK
Track 7
Filename Z:\DISTURBED\2011 - The Lost Children\07 - Leave It Alone.wav
Peak level 100.0 % Extraction speed 3.9 X Track quality 100.0 % Test CRC 01730B33 Copy CRC 01730B33 Accurately ripped (confidence 4) [92B55AAE] (AR v1) Copy OK
Track 8
Filename Z:\DISTURBED\2011 - The Lost Children\08 - Two Worlds.wav
Peak level 97.7 % Extraction speed 3.2 X Track quality 99.9 % Test CRC 26AA26D9 Copy CRC 26AA26D9 Accurately ripped (confidence 4) [8D81EE5B] (AR v1) Copy OK
Track 9
Filename Z:\DISTURBED\2011 - The Lost Children\09 - God Of The Mind.wav
Peak level 100.0 % Extraction speed 4.1 X Track quality 100.0 % Test CRC 25C89B34 Copy CRC 25C89B34 Accurately ripped (confidence 4) [F833EA19] (AR v1) Copy OK
Track 10
Filename Z:\DISTURBED\2011 - The Lost Children\10 - Sickened.wav
Peak level 97.8 % Extraction speed 4.3 X Track quality 100.0 % Test CRC 24EC9C95 Copy CRC 24EC9C95 Accurately ripped (confidence 4) [8925737D] (AR v1) Copy OK
Track 11
Filename Z:\DISTURBED\2011 - The Lost Children\11 - Mine.wav
Peak level 100.0 % Extraction speed 4.7 X Track quality 100.0 % Test CRC BA184C41 Copy CRC BA184C41 Accurately ripped (confidence 2) [BB5EDB73] (AR v2) Copy OK
Track 12
Filename Z:\DISTURBED\2011 - The Lost Children\12 - Parasite.wav
Peak level 100.0 % Extraction speed 3.7 X Track quality 99.9 % Test CRC 96454733 Copy CRC 96454733 Accurately ripped (confidence 2) [AEB0A8CE] (AR v2) Copy OK
Track 13
Filename Z:\DISTURBED\2011 - The Lost Children\13 - Dehumanized.wav
Peak level 98.8 % Extraction speed 4.7 X Track quality 100.0 % Test CRC 7B7F3E79 Copy CRC 7B7F3E79 Accurately ripped (confidence 2) [3FEA4230] (AR v2) Copy OK
Track 14
Filename Z:\DISTURBED\2011 - The Lost Children\14 - 3.wav
Peak level 100.0 % Extraction speed 4.9 X Track quality 100.0 % Test CRC 5C747A46 Copy CRC 5C747A46 Accurately ripped (confidence 2) [4C008586] (AR v2) Copy OK
Track 15
Filename Z:\DISTURBED\2011 - The Lost Children\15 - Midlife Crisis.wav
Peak level 100.0 % Extraction speed 5.0 X Track quality 100.0 % Test CRC B1346D5A Copy CRC B1346D5A Accurately ripped (confidence 2) [1B69A61B] (AR v2) Copy OK
Track 16
Filename Z:\DISTURBED\2011 - The Lost Children\16 - Living After Midnight.wav
Pre-gap length 0:00:01.05
Peak level 98.8 % Extraction speed 4.4 X Track quality 99.9 % Test CRC C7279B75 Copy CRC C7279B75 Accurately ripped (confidence 2) [374F4D9A] (AR v2) Copy OK
All tracks accurately ripped
No errors occurred
End of status report
==== Log checksum D7E649AE3826688A960A99E886938F4AD91873A2CEF515DCB3A780FD73C1A1A6 ====

Содержание индексной карты (.CUE)

REM GENRE Alternative Metal / Hard RockREM DATE 2011CATALOG 0093624954897PERFORMER "Disturbed"TITLE "The Lost Children"FILE "01 - Hell.wav" WAVE TRACK 01 AUDIO TITLE "Hell" PERFORMER "Disturbed" ISRC USRE10501061 INDEX 01 00:00:00FILE "02 - A Welcome Burden.wav" WAVE TRACK 02 AUDIO TITLE "A Welcome Burden" PERFORMER "Disturbed" ISRC USRE10902093 INDEX 01 00:00:00FILE "03 - This Moment.wav" WAVE TRACK 03 AUDIO TITLE "This Moment" PERFORMER "Disturbed" ISRC USRE10700847 INDEX 01 00:00:00FILE "04 - Old Friend.wav" WAVE TRACK 04 AUDIO TITLE "Old Friend" PERFORMER "Disturbed" ISRC USRE11000742 INDEX 01 00:00:00FILE "05 - Monster.wav" WAVE TRACK 05 AUDIO TITLE "Monster" PERFORMER "Disturbed" ISRC USRE10501074 INDEX 01 00:00:00FILE "06 - Run.wav" WAVE TRACK 06 AUDIO TITLE "Run" PERFORMER "Disturbed" ISRC USRE10800453 INDEX 01 00:00:00FILE "07 - Leave It Alone.wav" WAVE TRACK 07 AUDIO TITLE "Leave It Alone" PERFORMER "Disturbed" ISRC USRE11000618 INDEX 01 00:00:00FILE "08 - Two Worlds.wav" WAVE TRACK 08 AUDIO TITLE "Two Worlds" PERFORMER "Disturbed" ISRC USRE10602069 INDEX 01 00:00:00FILE "09 - God Of The Mind.wav" WAVE TRACK 09 AUDIO TITLE "God Of The Mind" PERFORMER "Disturbed" ISRC USRE10902094 INDEX 01 00:00:00FILE "10 - Sickened.wav" WAVE TRACK 10 AUDIO TITLE "Sickened" PERFORMER "Disturbed" ISRC USRE10602354 INDEX 01 00:00:00FILE "11 - Mine.wav" WAVE TRACK 11 AUDIO TITLE "Mine" PERFORMER "Disturbed" ISRC USRE11100758 INDEX 01 00:00:00FILE "12 - Parasite.wav" WAVE TRACK 12 AUDIO TITLE "Parasite" PERFORMER "Disturbed" ISRC USRE10800426 INDEX 01 00:00:00FILE "13 - Dehumanized.wav" WAVE TRACK 13 AUDIO TITLE "Dehumanized" PERFORMER "Disturbed" ISRC USRE10501063 INDEX 01 00:00:00FILE "14 - 3.wav" WAVE TRACK 14 AUDIO TITLE "3" PERFORMER "Disturbed" ISRC USRE11100149 INDEX 01 00:00:00FILE "15 - Midlife Crisis.wav" WAVE TRACK 15 AUDIO TITLE "Midlife Crisis" PERFORMER "Disturbed" ISRC USRE10900031 INDEX 01 00:00:00 TRACK 16 AUDIO TITLE "Living After Midnight" PERFORMER "Disturbed" ISRC USRE11000481 INDEX 00 04:02:49FILE "16 - Living After Midnight.wav" WAVE INDEX 01 00:00:00

-
-Live

Summer Of The Sickness (Promo) (EP) (2000)

Страна-производитель диска: США
Издатель (лейбл): Giant Records
Номер по каталогу: PRO-CD-100212
Тип рипа: tracks+.cue
Продолжительность: 37:45
Источник (релизер): what.cd by sn0man
Наличие сканов в содержимом раздачи: нет
Треклист:
01. Down With The Sickness [Live Restrained] [6:19]
02. The Game [Live Restrained] [3:49]
03. Voices [Live Restrained] [3:29]
04. Stupify [Live Restrained] [4:52]
05. Down With The Sickness [Live] [6:19]
06. The Game [Live] [3:53]
07. Voices [Live] [3:39]
08. Stupify [Live] [5:25]

Лог создания рипа

Exact Audio Copy V1.0 beta 1 from 15. November 2010
EAC extraction logfile from 16. January 2011, 14:13
Disturbed / Summer Of The Sickness
Used drive : HP DVD Writer 1040r Adapter: 7 ID: 0
Read mode : SecureUtilize accurate stream : YesDefeat audio cache : YesMake use of C2 pointers : No
Read offset correction : 6Overread into Lead-In and Lead-Out : NoFill up missing offset samples with silence : YesDelete leading and trailing silent blocks : NoNull samples used in CRC calculations : YesUsed interface : Native Win32 interface for Win NT & 2000Gap handling : Appended to previous track
Used output format : User Defined EncoderSelected bitrate : 128 kBit/sQuality : HighAdd ID3 tag : NoCommand line compressor : C:\Program Files (x86)\Exact Audio Copy\Flac\flac.exeAdditional command line options : -V -8 -T "artist=%a" -T "title=%t" -T "album=%g" -T "date=%y" -T "tracknumber=%n" -T "genre=%m" %s
TOC of the extracted CD
Track | Start | Length | Start sector | End sector --------------------------------------------------------- 1 | 0:00.32 | 6:18.53 | 32 | 28434 2 | 6:19.10 | 3:48.40 | 28435 | 45574 3 | 10:07.50 | 3:29.37 | 45575 | 61286 4 | 13:37.12 | 4:52.25 | 61287 | 83211 5 | 18:29.37 | 6:19.15 | 83212 | 111651 6 | 24:48.52 | 3:52.38 | 111652 | 129089 7 | 28:41.15 | 3:39.32 | 129090 | 145546 8 | 32:20.47 | 5:24.70 | 145547 | 169916
Track 1
Filename D:\eac\Disturbed - 2000 - Summer Of The Sickness\01 - Down With The Sickness (Live Restrained).wav
Pre-gap length 0:00:02.42
Peak level 99.0 % Extraction speed 1.9 X Track quality 100.0 % Test CRC 1D37A5B4 Copy CRC 1D37A5B4 Accurately ripped (confidence 1) [57AC1A1D] Copy OK
Track 2
Filename D:\eac\Disturbed - 2000 - Summer Of The Sickness\02 - The Game (Live Restrained).wav
Peak level 99.4 % Extraction speed 2.0 X Track quality 100.0 % Test CRC 59B23904 Copy CRC 59B23904 Accurately ripped (confidence 1) [5F60C471] Copy OK
Track 3
Filename D:\eac\Disturbed - 2000 - Summer Of The Sickness\03 - Voices (Live Restrained).wav
Peak level 100.0 % Extraction speed 2.2 X Track quality 100.0 % Test CRC 8B99809A Copy CRC 8B99809A Accurately ripped (confidence 1) [BFA69B5D] Copy OK
Track 4
Filename D:\eac\Disturbed - 2000 - Summer Of The Sickness\04 - Stupidfy (Live Restrained).wav
Peak level 99.8 % Extraction speed 2.5 X Track quality 100.0 % Test CRC 3C4B69CE Copy CRC 3C4B69CE Accurately ripped (confidence 1) [30CF9C5B] Copy OK
Track 5
Filename D:\eac\Disturbed - 2000 - Summer Of The Sickness\05 - Down With The Sickness (Live).wav
Peak level 99.8 % Extraction speed 2.4 X Track quality 99.9 % Test CRC 86569DE2 Copy CRC 86569DE2 Accurately ripped (confidence 1) [6B08A583] Copy OK
Track 6
Filename D:\eac\Disturbed - 2000 - Summer Of The Sickness\06 - The Game (Live).wav
Peak level 100.0 % Extraction speed 2.8 X Track quality 100.0 % Test CRC D7C2E0D2 Copy CRC D7C2E0D2 Accurately ripped (confidence 1) [D8F4ABF1] Copy OK
Track 7
Filename D:\eac\Disturbed - 2000 - Summer Of The Sickness\07 - Voices (Live).wav
Peak level 100.0 % Extraction speed 2.9 X Track quality 100.0 % Test CRC E0E1F807 Copy CRC E0E1F807 Accurately ripped (confidence 1) [CDD488E5] Copy OK
Track 8
Filename D:\eac\Disturbed - 2000 - Summer Of The Sickness\08 - Stupidfy (Live).wav
Peak level 99.2 % Extraction speed 3.2 X Track quality 100.0 % Test CRC 3F4467ED Copy CRC 3F4467ED Accurately ripped (confidence 1) [66162489] Copy OK
All tracks accurately ripped
No errors occurred
End of status report
==== Log checksum BB693338DAED611B32561C1C4D74808C60CA27A0FAA65EC084EFE60BB72F834F ====

Содержание индексной карты (.CUE)

REM GENRE Alternative Metal / Hard RockREM DATE 2000PERFORMER "Disturbed"TITLE "Summer Of The Sickness"FILE "01 - Down With The Sickness [Live Restrained].wav" WAVE TRACK 01 AUDIO TITLE "Down With The Sickness [Live Restrained]" PERFORMER "Disturbed" PREGAP 00:00:32 INDEX 01 00:00:00FILE "02 - The Game [Live Restrained].wav" WAVE TRACK 02 AUDIO TITLE "The Game [Live Restrained]" PERFORMER "Disturbed" INDEX 01 00:00:00FILE "03 - Voices [Live Restrained].wav" WAVE TRACK 03 AUDIO TITLE "Voices [Live Restrained]" PERFORMER "Disturbed" INDEX 01 00:00:00FILE "04 - Stupify [Live Restrained].wav" WAVE TRACK 04 AUDIO TITLE "Stupify [Live Restrained]" PERFORMER "Disturbed" INDEX 01 00:00:00FILE "05 - Down With The Sickness [Live].wav" WAVE TRACK 05 AUDIO TITLE "Down With The Sickness [Live]" PERFORMER "Disturbed" INDEX 01 00:00:00FILE "06 - The Game [Live].wav" WAVE TRACK 06 AUDIO TITLE "The Game [Live]" PERFORMER "Disturbed" INDEX 01 00:00:00FILE "07 - Voices [Live].wav" WAVE TRACK 07 AUDIO TITLE "Voices [Live]" PERFORMER "Disturbed" INDEX 01 00:00:00FILE "08 - Stupify [Live].wav" WAVE TRACK 08 AUDIO TITLE "Stuidfy [Live]" PERFORMER "Disturbed" INDEX 01 00:00:00

Live And Indestructible (EP) (2008)

Страна-производитель диска: США
Издатель (лейбл): Reprise Records
Номер по каталогу: 0093624980452
Тип рипа: tracks+.cue
Продолжительность: 15:59
Источник (релизер): what.cd by indykid
Наличие сканов в содержимом раздачи: нет
Треклист:
01. Inside The Fire [Live] [3:52]
02. The Game [Live] [3:51]
03. Stupify [Live] [4:11]
04. Stricken [Live] [4:06]

Лог создания рипа

Exact Audio Copy V1.0 beta 1 from 15. November 2010
EAC extraction logfile from 25. October 2011, 19:30
Disturbed / Live and Indestructible
Used drive : TSSTcorpCD/DVDW TS-H652L Adapter: 5 ID: 0
Read mode : SecureUtilize accurate stream : YesDefeat audio cache : YesMake use of C2 pointers : No
Read offset correction : 6Overread into Lead-In and Lead-Out : NoFill up missing offset samples with silence : YesDelete leading and trailing silent blocks : NoNull samples used in CRC calculations : YesUsed interface : Native Win32 interface for Win NT & 2000Gap handling : Appended to previous track
Used output format : User Defined EncoderSelected bitrate : 128 kBit/sQuality : HighAdd ID3 tag : NoCommand line compressor : C:\Program Files\Exact Audio Copy\Flac\flac.exeAdditional command line options : -V -8 -T "artist=%a" -T "title=%t" -T "album=%g" -T "date=%y" -T "tracknumber=%n" -T "genre=%m" %s
TOC of the extracted CD
Track | Start | Length | Start sector | End sector --------------------------------------------------------- 1 | 0:00.00 | 3:51.63 | 0 | 17387 2 | 3:51.63 | 3:50.60 | 17388 | 34697 3 | 7:42.48 | 4:10.60 | 34698 | 53507 4 | 11:53.33 | 4:05.49 | 53508 | 71931
Track 1
Filename M:\Downloads\Disturbed - Live and Indestructible (2008) [FLAC]\01 - Inside the Fire.wav
Pre-gap length 0:00:02.00
Peak level 98.8 % Extraction speed 2.9 X Track quality 100.0 % Test CRC E4E526BC Copy CRC E4E526BC Track not present in AccurateRip database Copy OK
Track 2
Filename M:\Downloads\Disturbed - Live and Indestructible (2008) [FLAC]\02 - The Game.wav
Peak level 98.8 % Extraction speed 3.1 X Track quality 100.0 % Test CRC 31C71F61 Copy CRC 31C71F61 Track not present in AccurateRip database Copy OK
Track 3
Filename M:\Downloads\Disturbed - Live and Indestructible (2008) [FLAC]\03 - Stupify.wav
Peak level 98.8 % Extraction speed 3.4 X Track quality 100.0 % Test CRC 20975DED Copy CRC 20975DED Track not present in AccurateRip database Copy OK
Track 4
Filename M:\Downloads\Disturbed - Live and Indestructible (2008) [FLAC]\04 - Stricken.wav
Peak level 98.8 % Extraction speed 3.6 X Track quality 100.0 % Test CRC 2AEC6B4C Copy CRC 2AEC6B4C Track not present in AccurateRip database Copy OK
None of the tracks are present in the AccurateRip database
No errors occurred
End of status report
==== Log checksum 6A0D6101DE687B7B13B07E101674A99625EAED147CD36E7E26658C0F60008CC3 ====

Содержание индексной карты (.CUE)

REM GENRE Alternative Metal / Hard RockREM DATE 2008PERFORMER "Disturbed"TITLE "Live And Indestructible"FILE "01 - Inside The Fire [Live].wav" WAVE TRACK 01 AUDIO TITLE "Inside The Fire [Live]" PERFORMER "Disturbed" INDEX 01 00:00:00FILE "02 - The Game [Live].wav" WAVE TRACK 02 AUDIO TITLE "The Game [Live]" PERFORMER "Disturbed" INDEX 01 00:00:00FILE "03 - Stupify [Live].wav" WAVE TRACK 03 AUDIO TITLE "Stupify [Live]" PERFORMER "Disturbed" INDEX 01 00:00:00FILE "04 - Stricken [Live].wav" WAVE TRACK 04 AUDIO TITLE "Stricken [Live]" PERFORMER "Disturbed" INDEX 01 00:00:00

[Цитировать]



Показать сообщения:    

Текущее время: 07-Дек 13:32

Часовой пояс: UTC + 3


Вы не можете начинать темы
Вы не можете отвечать на сообщения
Вы не можете редактировать свои сообщения
Вы не можете удалять свои сообщения
Вы не можете голосовать в опросах
Вы не можете прикреплять файлы к сообщениям
Вы не можете скачивать файлы

!ВНИМАНИЕ!
Сайт не предоставляет электронные версии произведений, а занимается лишь коллекционированием и каталогизацией ссылок, присылаемых и публикуемых на форуме нашими читателями. Если вы являетесь правообладателем какого-либо представленного материала и не желаете, чтобы ссылка на него находилась в нашем каталоге, свяжитесь с нами, и мы незамедлительно удалим ее. Файлы для обмена на трекере предоставлены пользователями сайта, и администрация не несет ответственности за их содержание. Просьба не заливать файлы, защищенные авторскими правами, а также файлы нелегального содержания!