[ Сегодня идет свободное скачивание без начисления Download ]


Статистика раздачи
Нет
 
   
 
Top  
 
 
-Лихорадка: Пациент Зеро / Cabin Fever: Patient Zero (2014) BDRip«Лето. Море. Смерть»- Год выпуска: 2014
Производство: США, Film002, Indomina Group, Indomina Productions
Жанр: Ужасы
Перевод: Двуголосый закадровый, любительский
Озвучка / Автор перевода: den904 & DeadSno
Субтитры: Отсутствуют
Дата мировой премьеры: 6 февраля 2014
Режиссер: Кааре Эндрюс
Актеры: Шон Эстин, Карри Грэм, Райан Доноху, Брандо Итон, Джиллиан Мюррэй, Митч Райан, Солли Дюран, Лидия Хёрст, Клодетт Лали
Описание фильма:
Молодая компания отправляется на Карибские острова, чтобы оттянуться перед свадьбой одного из друзей. Но на берегу лазурного океана, посреди вечного лета и райского блаженства ребята обнаруживают очаг смертоносной болезни… Вскоре начинается отчет жертв… Удастся ли кому-нибудь выжить?

Продолжительность: 01:34:50
Качество видео: BDRip 1080p
Видео кодек: MPEG-4 AVC/H.264
Аудио кодек: AC3, DTS
Видео: 1920x800 (2.40:1), 23.976 fps, ~9442 kbps, 0.256 bit/ pixel
Аудио: №1 Русский: 48 kHz, AC3, 5.1 ch, ~448 kbps
Аудио: №2 Английский: 48 kHz, DTS, 5.1 ch, ~768 kbps
Сэмпл: Скачать

MediaInfo

General
Unique ID                      : 197067234630426022446580332603793468449 (0x9441C4D1996F068FA0CB49C9C8A7EC21)
Complete name                  : D:\фильмы\Lihoradka.Pacient.Zero.2014.UNCUT.BDRip.1080p.mkv
Format                         : Matroska
Format version                 : Version 4 / Version 2
File size                      : 7.20 GiB
Duration                       : 1h 34mn
Overall bit rate               : 10.9 Mbps
Encoded date                   : UTC 2014-02-09 18:17:43
Writing application            : mkvmerge v6.7.0 ('Back to the Ground') 64bit built on Jan  8 2014 15:10:52
Writing library                : libebml v1.3.0 + libmatroska v1.4.1
Video
ID                             : 1
Format                         : AVC
Format/Info                    : Advanced Video Codec
Format profile                 : [url=mailto:High@L4.1]High@L4.1[/url]
Format settings, CABAC         : Yes
Format settings, ReFrames      : 5 frames
Codec ID                       : V_MPEG4/ISO/AVC
Duration                       : 1h 34mn
Bit rate                       : 9 442 Kbps
Width                          : 1 920 pixels
Height                         : 800 pixels
Display aspect ratio           : 2.40:1
Frame rate mode                : Constant
Frame rate                     : 23.976 fps
Color space                    : YUV
Chroma subsampling             : 4:2:0
Bit depth                      : 8 bits
Scan type                      : Progressive
Bits/(Pixel*Frame)             : 0.256
Stream size                    : 6.25 GiB (87%)
Language                       : English
Default                        : Yes
Forced                         : No
Audio #1
ID                             : 2
Format                         : AC-3
Format/Info                    : Audio Coding 3
Mode extension                 : CM (complete main)
Format settings, Endianness    : Big
Codec ID                       : A_AC3
Duration                       : 1h 34mn
Bit rate mode                  : Constant
Bit rate                       : 448 Kbps
Channel(s)                     : 6 channels
Channel positions              : Front: L C R, Side: L R, LFE
Sampling rate                  : 48.0 KHz
Bit depth                      : 16 bits
Compression mode               : Lossy
Stream size                    : 304 MiB (4%)
Language                       : Russian
Default                        : Yes
Forced                         : No
Audio #2
ID                             : 3
Format                         : DTS
Format/Info                    : Digital Theater Systems
Mode                           : 16
Format settings, Endianness    : Big
Codec ID                       : A_DTS
Duration                       : 1h 34mn
Bit rate mode                  : Constant
Bit rate                       : 768 Kbps
Channel(s)                     : 6 channels
Channel positions              : Front: L C R, Side: L R, LFE
Sampling rate                  : 48.0 KHz
Bit depth                      : 24 bits
Compression mode               : Lossy
Stream size                    : 521 MiB (7%)
Language                       : English
Default                        : No
Forced                         : No
Menu
00:00:00.000                   : en:00:00:00.000
00:06:05.949                   : en:00:06:05.949
00:13:14.002                   : en:00:13:14.002
00:19:10.941                   : en:00:19:10.941
00:31:37.020                   : en:00:31:37.020
00:44:44.974                   : en:00:44:44.974
00:51:47.980                   : en:00:51:47.980
01:01:09.583                   : en:01:01:09.583
01:11:24.363                   : en:01:11:24.363
01:18:23.908                   : en:01:18:23.908
01:27:55.937                   : en:01:27:55.937
01:31:44.958                   : en:01:31:44.958
Скриншоты:
[th]http://img.torrentsclub.org/di/R59N/3d6457b1aa9f781...4297cf8.png[/th] [th]http://img.torrentsclub.org/di/906G/0458dd41a66a9bb...ae6b797.png[/th] [th]http://img.torrentsclub.org/di/F38W/c24910d788e3d00...96d4631.png[/th]
Время раздачи: 10:00 - 24:00

[Цитировать]



Показать сообщения:    

Текущее время: 10-Дек 23:22

Часовой пояс: UTC + 3


Вы не можете начинать темы
Вы не можете отвечать на сообщения
Вы не можете редактировать свои сообщения
Вы не можете удалять свои сообщения
Вы не можете голосовать в опросах
Вы не можете прикреплять файлы к сообщениям
Вы не можете скачивать файлы

!ВНИМАНИЕ!
Сайт не предоставляет электронные версии произведений, а занимается лишь коллекционированием и каталогизацией ссылок, присылаемых и публикуемых на форуме нашими читателями. Если вы являетесь правообладателем какого-либо представленного материала и не желаете, чтобы ссылка на него находилась в нашем каталоге, свяжитесь с нами, и мы незамедлительно удалим ее. Файлы для обмена на трекере предоставлены пользователями сайта, и администрация не несет ответственности за их содержание. Просьба не заливать файлы, защищенные авторскими правами, а также файлы нелегального содержания!