[ Сегодня идет свободное скачивание без начисления Download ]


Статистика раздачи
Нет
 
   
 
Top  
 
 
-Телепорт / Jumper (2008) BDRip- Год выпуска: 2008
Производство: США, Канада / 20th Century Fox Film Corporation, Dune Entertainment, Epsilon Motion Pictures, Jumper Productions, New Regency Pictures, Regency Enterprises
Жанр: фантастика, боевик, триллер, приключения
Перевод: дублированный, профессиональный многоголосый закадровый, авторский одноголосый закадровый
Субтитры: интегрированные отключаемые
Язык субтитров: русский (надписи, полные), английский (полные)-Дата мировой премьеры: 6 февраля 2008
Дата российской премьеры: 14 февраля 2008, «Двадцатый Век Фокс СНГ»
Дата выхода DVD релиза: 18 июня 2009, «Двадцатый Век Фокс СНГ»
Дата выхода Blu-Ray релиза: 4 декабря 2008, «Двадцатый Век Фокс СНГ»-Режиссер: Даг Лайман
Актеры: Хейден Кристенсен, Джейми Белл, Рэйчел Билсон, Дайан Лэйн, Сэмюэл Л. Джексон, Майкл Рукер, Анна-София Робб, Макс Тириот, Джесси Джеймс, Том Халс, Кристен Стюарт, Тедди Данн, Барбара Гэррик, Майкл Уинтер, Массимилиано Паццаглиа, Шон Робертс, Натали Кокс, Мередит Хендерсон, Дамир Андрей, Тони Наппо, Джордж Кинг, Кларк Бисли мл., Симона Лиси, Маттео Карломаньо, Фабрицио Буччи, Джорджо Сантанжело, Марселло Сантони, Франко Сальваторе Ди Стефано, Брэд Бобридж, Анджело Лопез, Роберто Антонелли, Вероника Визентен, Кристиан Пайкс-Описание фильма:
Подросток из неблагополучного района Дэвид Райс всегда считал себя обычным парнем, пока однажды он не узнал, что он может телепортироваться с места на место. Новые способности открыли перед ним весь мир. Он может побывать в Нью-Йорке и Токио, посетить античные развалины в Риме, увидеть «крышу мира» с горы Эверест, увидеть 20 рассветов и 20 закатов. И все — в один день.
Теперь ему не нужны деньги — он может взять сколько хочет. Однако в один момент он обнаруживает, что стал мишенью. На него, как и на других подобных ему, объявлена охота. На протяжении тысячи лет тайное общество стремится уничтожить их. Вскоре Дэвид узнает истинную ценность его новых способностей.- -Продолжительность: 01:28:21
Качество видео: BDRip (source: Blu-Ray 2D/3D Disc [BLUEBIRD])
Видео: MPEG-4 AVC/H.264, 1280x720, ~ 10.5 Mbps, 23.976 fps, 16:9, [email protected])
Аудио 1: DTS, 48 kHz, 6 каналов, 768 Kbps / русский (дубляж)
Аудио 2: AC-3, 48 kHz, 6 каналов, 448 Kbps / русский, многоголосый закадровый (Ст. «Кравец», LostFilm)
Аудио 3: DTS, 48 kHz, 6 каналов, 768 Kbps / русский, одноголосый закадровый (Гаврилов)
Аудио 4: DTS, 48 kHz, 6 каналов, 768 Kbps / русский, одноголосый закадровый (Немахов)
Аудио 5: DTS, 48 kHz, 6 каналов, 768 Kbps / английский (оригинал)
Аудио 6: AC-3, 48 kHz, 6 каналов, 448 Kbps / английский (оригинал с комментариями)
Аудио 7: AC-3, 48 kHz, 2 канала, 96 Kbps / английский (комментарии от создателей)
Сэмпл: http://multi-up.com/949246

MediaInfo

General
Unique ID : 185496464128910733636422457344911859117 (0x8B8D51C9BA7D1B15802B764422C9DDAD)
Complete name : D:\XDownload\Jumper.2008.BDRip-720p.mkv
Format : Matroska
Format version : Version 4 / Version 2
File size : 8.99 GiB
Duration : 1h 28mn
Overall bit rate : 14.6 Mbps
Encoded date : UTC 2014-02-06 15:26:03
Writing application : mkvmerge v6.5.0 ('Isn't she lovely') built on Oct 20 2013 12:50:05
Writing library : libebml v1.3.0 + libmatroska v1.4.1
Video
ID : 1
Format : AVC
Format/Info : Advanced Video Codec
Format profile : [email protected]
Format settings, CABAC : Yes
Format settings, ReFrames : 9 frames
Codec ID : V_MPEG4/ISO/AVC
Duration : 1h 28mn
Bit rate : 10.5 Mbps
Width : 1 280 pixels
Height : 720 pixels
Display aspect ratio : 16:9
Frame rate mode : Constant
Frame rate : 23.976 fps
Color space : YUV
Chroma subsampling : 4:2:0
Bit depth : 8 bits
Scan type : Progressive
Bits/(Pixel*Frame) : 0.476
Stream size : 6.30 GiB (70%)
Writing library : x264 core 138 r2358 9e941d1
Encoding settings : cabac=1 / ref=9 / deblock=1:-3:-3 / analyse=0x3:0x113 / me=umh / subme=11 / psy=1 / psy_rd=1.00:0.00 / mixed_ref=1 / me_range=32 / chroma_me=1 / trellis=2 / 8x8dct=1 / cqm=0 / deadzone=21,11 / fast_pskip=0 / chroma_qp_offset=-2 / threads=12 / lookahead_threads=2 / sliced_threads=0 / nr=0 / decimate=1 / interlaced=0 / bluray_compat=0 / constrained_intra=0 / bframes=8 / b_pyramid=2 / b_adapt=2 / b_bias=0 / direct=3 / weightb=1 / open_gop=0 / weightp=2 / keyint=240 / keyint_min=23 / scenecut=60 / intra_refresh=0 / rc_lookahead=60 / rc=2pass / mbtree=0 / bitrate=10512 / ratetol=1.0 / qcomp=0.70 / qpmin=0 / qpmax=69 / qpstep=4 / cplxblur=20.0 / qblur=0.5 / vbv_maxrate=62500 / vbv_bufsize=50000 / nal_hrd=none / ip_ratio=1.40 / pb_ratio=1.30 / aq=2:0.80
Language : English
Default : Yes
Forced : No
Audio #1
ID : 2
Format : DTS
Format/Info : Digital Theater Systems
Mode : 16
Format settings, Endianness : Big
Codec ID : A_DTS
Duration : 1h 28mn
Bit rate mode : Constant
Bit rate : 768 Kbps
Channel count : 6 channels
Channel positions : Front: L C R, Side: L R, LFE
Sampling rate : 48.0 KHz
Bit depth : 24 bits
Compression mode : Lossy
Stream size : 485 MiB (5%)
Title : Dub
Language : Russian
Default : Yes
Forced : No
Audio #2
ID : 3
Format : AC-3
Format/Info : Audio Coding 3
Mode extension : CM (complete main)
Format settings, Endianness : Big
Codec ID : A_AC3
Duration : 1h 28mn
Bit rate mode : Constant
Bit rate : 448 Kbps
Channel count : 6 channels
Channel positions : Front: L C R, Side: L R, LFE
Sampling rate : 48.0 KHz
Bit depth : 16 bits
Compression mode : Lossy
Stream size : 283 MiB (3%)
Title : LostFilm
Language : Russian
Default : No
Forced : No
Audio #3
ID : 4
Format : DTS
Format/Info : Digital Theater Systems
Mode : 16
Format settings, Endianness : Big
Codec ID : A_DTS
Duration : 1h 28mn
Bit rate mode : Constant
Bit rate : 768 Kbps
Channel count : 6 channels
Channel positions : Front: L C R, Side: L R, LFE
Sampling rate : 48.0 KHz
Bit depth : 24 bits
Compression mode : Lossy
Stream size : 485 MiB (5%)
Title : Gavrilov
Language : Russian
Default : No
Forced : No
Audio #4
ID : 5
Format : DTS
Format/Info : Digital Theater Systems
Mode : 16
Format settings, Endianness : Big
Codec ID : A_DTS
Duration : 1h 28mn
Bit rate mode : Constant
Bit rate : 768 Kbps
Channel count : 6 channels
Channel positions : Front: L C R, Side: L R, LFE
Sampling rate : 48.0 KHz
Bit depth : 24 bits
Compression mode : Lossy
Stream size : 485 MiB (5%)
Title : Nemahov
Language : Russian
Default : No
Forced : No
Audio #5
ID : 6
Format : DTS
Format/Info : Digital Theater Systems
Mode : 16
Format settings, Endianness : Big
Codec ID : A_DTS
Duration : 1h 28mn
Bit rate mode : Constant
Bit rate : 768 Kbps
Channel count : 6 channels
Channel positions : Front: L C R, Side: L R, LFE
Sampling rate : 48.0 KHz
Bit depth : 24 bits
Compression mode : Lossy
Stream size : 485 MiB (5%)
Title : Original
Language : English
Default : No
Forced : No
Audio #6
ID : 7
Format : AC-3
Format/Info : Audio Coding 3
Mode extension : CM (complete main)
Format settings, Endianness : Big
Codec ID : A_AC3
Duration : 1h 28mn
Bit rate mode : Constant
Bit rate : 448 Kbps
Channel count : 6 channels
Channel positions : Front: L C R, Side: L R, LFE
Sampling rate : 48.0 KHz
Bit depth : 16 bits
Compression mode : Lossy
Stream size : 283 MiB (3%)
Title : Commentary 1
Language : English
Default : No
Forced : No
Audio #7
ID : 8
Format : AC-3
Format/Info : Audio Coding 3
Mode extension : CM (complete main)
Format settings, Endianness : Big
Codec ID : A_AC3
Duration : 1h 28mn
Bit rate mode : Constant
Bit rate : 96.0 Kbps
Channel count : 2 channels
Channel positions : Front: L R
Sampling rate : 48.0 KHz
Bit depth : 16 bits
Compression mode : Lossy
Stream size : 60.7 MiB (1%)
Title : Commentary 2
Language : English
Default : No
Forced : No
Text #1
ID : 9
Format : UTF-8
Codec ID : S_TEXT/UTF8
Codec ID/Info : UTF-8 Plain Text
Title : Forced
Language : Russian
Default : Yes
Forced : No
Text #2
ID : 10
Format : UTF-8
Codec ID : S_TEXT/UTF8
Codec ID/Info : UTF-8 Plain Text
Title : Full
Language : Russian
Default : No
Forced : No
Text #3
ID : 11
Format : UTF-8
Codec ID : S_TEXT/UTF8
Codec ID/Info : UTF-8 Plain Text
Title : Full
Language : English
Default : No
Forced : No
Menu
00:00:00.000 : en:00:00:00.000
00:04:21.094 : en:00:04:21.094
00:07:52.555 : en:00:07:52.555
00:12:35.713 : en:00:12:35.713
00:15:08.699 : en:00:15:08.699
00:17:46.983 : en:00:17:46.983
00:22:51.787 : en:00:22:51.787
00:25:51.467 : en:00:25:51.467
00:28:57.235 : en:00:28:57.235
00:31:46.988 : en:00:31:46.988
00:32:57.058 : en:00:32:57.058
00:36:18.093 : en:00:36:18.093
00:39:52.640 : en:00:39:52.640
00:43:21.057 : en:00:43:21.057
00:48:47.299 : en:00:48:47.299
00:51:01.725 : en:00:51:01.725
00:54:48.285 : en:00:54:48.285
00:59:15.969 : en:00:59:15.969
01:02:11.728 : en:01:02:11.728
01:07:32.674 : en:01:07:32.674
01:12:45.403 : en:01:12:45.403
01:17:04.411 : en:01:17:04.411
01:20:39.585 : en:01:20:39.585
01:23:49.066 : en:01:23:49.066

Log

--[Information] [05.02.2014 23:22:08] Standard error stream
---[Information] [05.02.2014 23:22:14] raw [info]: 1280x720p 1:1 @ 24000/1001 fps (cfr)
---[Information] [05.02.2014 23:22:14] x264 [info]: using SAR=1/1
---[Information] [05.02.2014 23:22:14] x264 [info]: using cpu capabilities: MMX2 SSE2Fast SSSE3 SSE4.2 AVX AVX2 FMA3 LZCNT BMI2
---[Information] [05.02.2014 23:22:14] x264 [info]: profile High, level 4.1
---[Information] [06.02.2014 5:24:51] x264 [info]: frame I:716 Avg QP:16.00 size:161359
---[Information] [06.02.2014 5:24:51] x264 [info]: frame P:34090 Avg QP:18.38 size: 84216
---[Information] [06.02.2014 5:24:51] x264 [info]: frame B:92284 Avg QP:20.53 size: 43031
---[Information] [06.02.2014 5:24:51] x264 [info]: consecutive B-frames: 4.9% 6.4% 12.7% 24.3% 17.0% 29.4% 3.7% 0.8% 0.8%
---[Information] [06.02.2014 5:24:51] x264 [info]: mb I I16..4: 4.0% 82.8% 13.1%
---[Information] [06.02.2014 5:24:51] x264 [info]: mb P I16..4: 0.8% 27.0% 1.1% P16..4: 23.9% 31.2% 10.9% 0.0% 0.0% skip: 5.0%
---[Information] [06.02.2014 5:24:51] x264 [info]: mb B I16..4: 0.1% 5.5% 0.1% B16..8: 38.9% 23.0% 5.7% direct: 8.3% skip:18.4% L0:42.8% L1:42.5% BI:14.7%
---[Information] [06.02.2014 5:24:51] x264 [info]: 8x8 transform intra:93.9% inter:60.0%
---[Information] [06.02.2014 5:24:51] x264 [info]: direct mvs spatial:98.6% temporal:1.4%
---[Information] [06.02.2014 5:24:51] x264 [info]: coded y,uvDC,uvAC intra: 95.6% 94.3% 85.4% inter: 49.5% 41.8% 19.5%
---[Information] [06.02.2014 5:24:51] x264 [info]: i16 v,h,dc,p: 42% 12% 8% 38%
---[Information] [06.02.2014 5:24:51] x264 [info]: i8 v,h,dc,ddl,ddr,vr,hd,vl,hu: 7% 8% 11% 10% 14% 13% 13% 11% 13%
---[Information] [06.02.2014 5:24:51] x264 [info]: i4 v,h,dc,ddl,ddr,vr,hd,vl,hu: 8% 7% 5% 9% 17% 14% 15% 11% 13%
---[Information] [06.02.2014 5:24:51] x264 [info]: i8c dc,h,v,p: 59% 13% 10% 18%
---[Information] [06.02.2014 5:24:51] x264 [info]: Weighted P-Frames: Y:2.7% UV:1.3%
---[Information] [06.02.2014 5:24:51] x264 [info]: ref P L0: 45.9% 10.5% 18.7% 7.3% 5.8% 3.8% 3.5% 2.0% 2.0% 0.5% 0.0%
---[Information] [06.02.2014 5:24:51] x264 [info]: ref B L0: 72.1% 13.5% 5.9% 3.3% 2.2% 1.8% 0.9% 0.3%
---[Information] [06.02.2014 5:24:51] x264 [info]: ref B L1: 92.9% 7.1%
---[Information] [06.02.2014 5:24:51] x264 [info]: kb/s:10500.53
---[Information] [06.02.2014 5:24:51] encoded 127090 frames, 5.84 fps, 10500.53 kb/s
---[Information] [06.02.2014 5:24:51] Stream with high frequencies VQ coding
--[Information] [06.02.2014 5:24:53] Final statistics
---[Information] [06.02.2014 5:24:53] Video Bitrate Desired: 10512 kbit/s
---[Information] [06.02.2014 5:24:53] Video Bitrate Obtained (approximate): 10502 kbit/s

Сравнение

С рипом от http://check2pic.ru/compare/35679/

Доп. информация

- Open Matte (полный кадр, немного обрезано по бокам, добавлено сверху и снизу)
- звуковые дорожки с двух источников: BDRemux'a с трекера и Blu-Ray диска с BlueBird'а. Все синхронизировано.
- Субтитры и навигация по главам присутствуют.
-Скриншоты:

[Цитировать]



Показать сообщения:    

Текущее время: 04-Дек 02:57

Часовой пояс: UTC + 3


Вы не можете начинать темы
Вы не можете отвечать на сообщения
Вы не можете редактировать свои сообщения
Вы не можете удалять свои сообщения
Вы не можете голосовать в опросах
Вы не можете прикреплять файлы к сообщениям
Вы не можете скачивать файлы

!ВНИМАНИЕ!
Сайт не предоставляет электронные версии произведений, а занимается лишь коллекционированием и каталогизацией ссылок, присылаемых и публикуемых на форуме нашими читателями. Если вы являетесь правообладателем какого-либо представленного материала и не желаете, чтобы ссылка на него находилась в нашем каталоге, свяжитесь с нами, и мы незамедлительно удалим ее. Файлы для обмена на трекере предоставлены пользователями сайта, и администрация не несет ответственности за их содержание. Просьба не заливать файлы, защищенные авторскими правами, а также файлы нелегального содержания!