[ Сегодня идет свободное скачивание без начисления Download ]


Статистика раздачи
Нет
 
   
 
Top  
 
 
-Рэмбо / Rambo (1982-1985-1988-2007) BDRip [720p] [hand made 60fps] [Квадрология]-Рэмбо: Первая кровь часть 1/Rambo: First Blood part 1-Оригинальное название: Rambo: First Blood part 1
Год выпуска: 1982
Жанр: Боевик, Триллер
Производство: США
Описание фильма:
Он — эксперт. Эксперт по оружию, ножам и собственному телу. Он человек, специально обученный не замечать боль и погодные условия.
Во Вьетнаме его задание было уничтожать вражеский личный состав. Много убивать. Истощать силы врага до полной победы. Рэмбо был лучший. На войне он был героем, а на родине, во имя которой проливалась кровь, он никому не нужен.
Не способный приспособиться к мирной жизни Рэмбо путешествует автостопом по городам Америки, встречаясь с однополчанами. Путешествие прекращает провинциальный шериф, ненавидящий бродяг.
Попавший в тюрьму по ложному обвинению, вкусивший унижений со стороны администрации, Рэмбо объявляет войну. Войну существующему отношению к ветеранам, беспределу официальных структур и главе местной полиции лично.
Совершив фантастический побег из тюрьмы, Джон начинает партизанскую войну в местных лесах. Очень скоро ситуация выходит из под контроля властей и в маленький город вводят части регулярной армии. Бывший боевой командир Джона Рэмбо смог дать лишь один комментарий: «Раз ты привел сюда так много людей, то приготовь побольше мешков для трупов».
Режиссер: Тед Котчефф
Актеры: Сильвестр Сталлоне, Ричард Кренна, Брайан Деннехи, Билл МакКинни, Джек Старретт, Майкл Тэлботт, Крис Малки, Джон МакЛиам, Альф Хамфриз, Дэвид Карузо
Продолжительность: 01:33:16
Качество видео: BDRip
Перевод: Многоголосый закадровый
[kp]4087[/kp] [imdb]tt0083944[/imdb]
Видеокодек: MPEG-4 AVC/H.264
Битрейт видео: ~12500 kb/s
Размер кадра: 1280*544
Аудиокодек: AC3 2.0
Битрейт аудио: 320 kb/s
Сэмпл: Ссылка В 2,5 раза больше кадров!
В 2,5 раза больше исходника!
В 2,5 раза плавнее! (59,94 fps)
Приятного просмотра. Программа для воспроизведения Media Player Classic x32 или x64.Минимум одноядерный ЦП с частотой минимум 2000гц.Оперативной памяти для стабильной работы программы необходимо 150мб.
На всякий случай обновите кодеки K-lite.

MI

Общее
Уникальный идентификатор : 192819749467764318814558765736228617963 (0x910FBBA1C10A9F08AEBB1525C348FEEB)
Полное имя : Z:\Фильмы\Рэмбо\Рэмбо 1 Первая кровь ч.1.mkv
Формат : Matroska
Версия формата : Version 4 / Version 2
Размер файла : 8,49 Гбайт
Продолжительность : 1 ч. 33 м.
Общий поток : 13,0 Мбит/сек
Дата кодирования : UTC 2014-02-07 09:49:58
Программа кодирования : mkvmerge v6.7.0 ('Back to the Ground') 64bit built on Jan 8 2014 15:10:52
Библиотека кодирования : libebml v1.3.0 + libmatroska v1.4.1
Видео
Идентификатор : 1
Формат : AVC
Формат/Информация : Advanced Video Codec
Профиль формата : [email protected]
Параметр CABAC формата : Да
Параметр ReFrames формата : 9 кадров
Идентификатор кодека : V_MPEG4/ISO/AVC
Продолжительность : 1 ч. 33 м.
Битрейт : 12,5 Мбит/сек
Ширина : 1280 пикселей
Высота : 544 пикселя
Соотношение сторон : 2,35:1
Режим частоты кадров : Постоянный
Частота кадров : 59,880 кадров/сек
Частота кадров в оригинале : 59,940 кадров/сек
Цветовое пространство : YUV
Субдискретизация насыщенности : 4:2:0
Битовая глубина : 8 бит
Тип развёртки : Прогрессивная
Бит/(Пиксели*Кадры) : 0.299
Размер потока : 8,11 Гбайт (96%)
Библиотека кодирования : x264 core 130 r2273 b3065e6
Настройки программы : cabac=1 / ref=9 / deblock=1:0:0 / analyse=0x3:0 / me=umh / subme=9 / psy=1 / psy_rd=1.00:0.10 / mixed_ref=1 / me_range=24 / chroma_me=0 / trellis=1 / 8x8dct=1 / cqm=0 / deadzone=21,11 / fast_pskip=0 / chroma_qp_offset=-3 / threads=6 / lookahead_threads=1 / sliced_threads=0 / nr=0 / decimate=0 / interlaced=0 / bluray_compat=0 / constrained_intra=0 / bframes=6 / b_pyramid=2 / b_adapt=2 / b_bias=0 / direct=1 / weightb=1 / open_gop=0 / weightp=2 / keyint=250 / keyint_min=25 / scenecut=40 / intra_refresh=0 / rc=crf / mbtree=0 / crf=14.0 / qcomp=0.60 / qpmin=0 / qpmax=69 / qpstep=4 / ip_ratio=1.40 / pb_ratio=1.30 / aq=1:1.00
Язык : English
Default : Да
Forced : Нет
Аудио
Идентификатор : 2
Формат : AC-3
Формат/Информация : Audio Coding 3
Расширение режима : CM (complete main)
Параметр Endianness формата : Big
Идентификатор кодека : A_AC3
Продолжительность : 1 ч. 33 м.
Вид битрейта : Постоянный
Битрейт : 320 Кбит/сек
Каналы : 2 канала
Расположение каналов : Front: L R
Частота : 48,0 КГц
Битовая глубина : 16 бит
Метод сжатия : С потерями
Размер потока : 213 Мбайт (2%)
Заголовок : Rus
Язык : Russian
Default : Да
Forced : Нет
Меню
00:00:00.000 : :Chapter 01
00:04:59.674 : :Chapter 02
00:09:53.843 : :Chapter 03
00:17:36.555 : :Chapter 04
00:23:19.481 : :Chapter 05
00:30:46.427 : :Chapter 06
00:36:53.920 : :Chapter 07
00:42:11.946 : :Chapter 08
00:48:37.539 : :Chapter 09
00:53:55.273 : :Chapter 10
01:00:01.431 : :Chapter 11
01:08:01.744 : :Chapter 12
01:13:48.006 : :Chapter 13
01:17:42.366 : :Chapter 14
01:22:46.544 : :Chapter 15
01:29:44.337 : :Chapter 16
Скриншоты:
[th]http://i2.imageban.ru/out/2014/02/07/c51a9ac7732908...52a902d.png[/th] [th]http://i4.imageban.ru/out/2014/02/07/2321faa50dd4f5...3aa9891.png[/th] [th]http://i2.imageban.ru/out/2014/02/07/4edf18a1d39e05...d6543dc.png[/th] [th]http://i3.imageban.ru/out/2014/02/07/bee57ce37180b7...f7045aa.png[/th]
Время раздачи: 24/7-Рэмбо: Первая кровь часть 2/Rambo: First Blood part 2-Оригинальное название: Rambo: First Blood part 2
Год выпуска: 1985
Жанр: Боевик, Триллер
Производство: США
Описание фильма:
Джон Рэмбо отбывает наказание в тюрьме строгого режима. Он смирился со своей участью, но несмотря на свое положение, он продолжает чтить основные заповеди военного братства: верить напарнику, прикрывать его спину, отдать свою жизнь за него и свою страну.
Когда полковник Траутман, бывший боевой командир Рэмбо предлагает ему отправиться во Вьетнам, на спецоперацию по спасению оставшихся в плену американских солдат, он не раздумывая соглашается.
Режиссер: Джордж П. Косматос
Актеры: Сильвестр Сталлоне, Ричард Кренна, Чарльз Нэпьер, Стивен Беркофф, Джулия Никсон-Соул, Мартин Коув, Джордж Чунг, Энди Вуд, Уильям Хент, Войо Горич
Продолжительность: 01:36:00
Качество видео: BDRip
Перевод: Многоголосый закадровый
[kp]6352[/kp] [imdb]tt0089880[/imdb]
Видеокодек: MPEG-4 AVC/H.264
Битрейт видео: ~11700 kb/s
Размер кадра: 1280*544
Аудиокодек: AC3 2.0
Битрейт аудио: 320 kb/s
Сэмпл: Ссылка В 2,5 раза больше кадров!
В 2,5 раза больше исходника!
В 2,5 раза плавнее! (59,94 fps)
Приятного просмотра.

MI

Общее
Уникальный идентификатор : 241915548951950200062204337734475617696 (0xB5FF3D6EEEB01E5EBD613E8302D895A0)
Полное имя : Z:\Фильмы\Рэмбо\Рэмбо 2 Первая кровь ч.2.mkv
Формат : Matroska
Версия формата : Version 4 / Version 2
Размер файла : 8,25 Гбайт
Продолжительность : 1 ч. 36 м.
Общий поток : 12,3 Мбит/сек
Дата кодирования : UTC 2014-02-07 09:53:27
Программа кодирования : mkvmerge v6.7.0 ('Back to the Ground') 64bit built on Jan 8 2014 15:10:52
Библиотека кодирования : libebml v1.3.0 + libmatroska v1.4.1
Видео
Идентификатор : 1
Формат : AVC
Формат/Информация : Advanced Video Codec
Профиль формата : [email protected]
Параметр CABAC формата : Да
Параметр ReFrames формата : 9 кадров
Идентификатор кодека : V_MPEG4/ISO/AVC
Продолжительность : 1 ч. 36 м.
Битрейт : 11,7 Мбит/сек
Ширина : 1280 пикселей
Высота : 544 пикселя
Соотношение сторон : 2,35:1
Режим частоты кадров : Постоянный
Частота кадров : 59,880 кадров/сек
Частота кадров в оригинале : 59,940 кадров/сек
Цветовое пространство : YUV
Субдискретизация насыщенности : 4:2:0
Битовая глубина : 8 бит
Тип развёртки : Прогрессивная
Бит/(Пиксели*Кадры) : 0.282
Размер потока : 7,88 Гбайт (95%)
Библиотека кодирования : x264 core 130 r2273 b3065e6
Настройки программы : cabac=1 / ref=9 / deblock=1:0:0 / analyse=0x3:0 / me=umh / subme=9 / psy=1 / psy_rd=1.00:0.10 / mixed_ref=1 / me_range=24 / chroma_me=0 / trellis=1 / 8x8dct=1 / cqm=0 / deadzone=21,11 / fast_pskip=0 / chroma_qp_offset=-3 / threads=6 / lookahead_threads=1 / sliced_threads=0 / nr=0 / decimate=0 / interlaced=0 / bluray_compat=0 / constrained_intra=0 / bframes=6 / b_pyramid=2 / b_adapt=2 / b_bias=0 / direct=1 / weightb=1 / open_gop=0 / weightp=2 / keyint=250 / keyint_min=25 / scenecut=40 / intra_refresh=0 / rc=crf / mbtree=0 / crf=14.0 / qcomp=0.60 / qpmin=0 / qpmax=69 / qpstep=4 / ip_ratio=1.40 / pb_ratio=1.30 / aq=1:1.00
Язык : English
Default : Да
Forced : Нет
Аудио
Идентификатор : 2
Формат : AC-3
Формат/Информация : Audio Coding 3
Расширение режима : CM (complete main)
Параметр Endianness формата : Big
Идентификатор кодека : A_AC3
Продолжительность : 1 ч. 36 м.
Вид битрейта : Постоянный
Битрейт : 320 Кбит/сек
Каналы : 2 канала
Расположение каналов : Front: L R
Частота : 48,0 КГц
Битовая глубина : 16 бит
Метод сжатия : С потерями
Размер потока : 220 Мбайт (3%)
Заголовок : Rus
Язык : Russian
Default : Да
Forced : Нет
Меню
00:00:00.000 : :Chapter 01
00:03:35.506 : :Chapter 02
00:10:58.240 : :Chapter 03
00:17:16.201 : :Chapter 04
00:23:00.212 : :Chapter 05
00:28:46.224 : :Chapter 06
00:35:47.270 : :Chapter 07
00:40:54.827 : :Chapter 08
00:47:55.664 : :Chapter 09
00:55:20.692 : :Chapter 10
01:03:10.453 : :Chapter 11
01:11:59.815 : :Chapter 12
01:18:35.711 : :Chapter 13
01:22:23.855 : :Chapter 14
01:28:18.543 : :Chapter 15
01:32:35.675 : :Chapter 16
Скриншоты:
[th]http://i2.imageban.ru/out/2014/02/07/8ed658afa7b396...fcd4f32.png[/th] [th]http://i2.imageban.ru/out/2014/02/07/4f2ad986831bff...d009c4d.png[/th] [th]http://i3.imageban.ru/out/2014/02/07/9652fe218e1cd8...51a5938.png[/th] [th]http://i1.imageban.ru/out/2014/02/07/fbe6f2005943e4...67a1384.png[/th]
Время раздачи: 24/7-Рэмбо 3/Rambo 3-Оригинальное название: Rambo 3
Год выпуска: 1988
Жанр: Боевик, Триллер
Производство: США
Описание фильма:
Ветеран вьетнамской войны Джон Рэмбо, уставший от своих военных и гражданских подвигов, поселяется в буддистском монастыре. Однако долго пребывать в мире ему не приходится. Захвачен в плен его бывший командир, и Рэмбо отправляется его спасать, вступая в отчаянную и неравную схватку с противником, а заодно разоблачая коррумпированных американских военных.
Режиссер: Питер МакДональд
Актеры: Сильвестр Сталлоне, Ричард Кренна, Марк Де Йонге, Кертвуд Смит, Спирос Фокас, Сэссон Габаи, Дуди Шоуа, Рэнди Рэни, Маркус Гилберт, Алон Абутбул
Продолжительность: 01:41:44
Качество видео: BDRip
Перевод: Многоголосый закадровый
[kp]8168[/kp] [imdb]tt0095956[/imdb]
Видеокодек: MPEG-4 AVC/H.264
Битрейт видео: ~13200 kb/s
Размер кадра: 1280*544
Аудиокодек: AC3 2.0
Битрейт аудио: 320 kb/s
Сэмпл: Ссылка В 2,5 раза больше кадров!
В 2,5 раза больше исходника!
В 2,5 раза плавнее! (59,94 fps)
Приятного просмотра.

MI

Общее
Уникальный идентификатор : 205248065235240309486925067168600652084 (0x9A6956E894D1DD0B8AB4E93FF0C97934)
Полное имя : Z:\Фильмы\Рэмбо\Рэмбо 3.mkv
Формат : Matroska
Версия формата : Version 4 / Version 2
Размер файла : 9,81 Гбайт
Продолжительность : 1 ч. 41 м.
Общий поток : 13,8 Мбит/сек
Дата кодирования : UTC 2014-02-07 09:57:22
Программа кодирования : mkvmerge v6.7.0 ('Back to the Ground') 64bit built on Jan 8 2014 15:10:52
Библиотека кодирования : libebml v1.3.0 + libmatroska v1.4.1
Видео
Идентификатор : 1
Формат : AVC
Формат/Информация : Advanced Video Codec
Профиль формата : [email protected]
Параметр CABAC формата : Да
Параметр ReFrames формата : 9 кадров
Идентификатор кодека : V_MPEG4/ISO/AVC
Продолжительность : 1 ч. 41 м.
Битрейт : 13,2 Мбит/сек
Ширина : 1280 пикселей
Высота : 544 пикселя
Соотношение сторон : 2,35:1
Режим частоты кадров : Постоянный
Частота кадров : 59,880 кадров/сек
Частота кадров в оригинале : 59,940 кадров/сек
Цветовое пространство : YUV
Субдискретизация насыщенности : 4:2:0
Битовая глубина : 8 бит
Тип развёртки : Прогрессивная
Бит/(Пиксели*Кадры) : 0.317
Размер потока : 9,38 Гбайт (96%)
Библиотека кодирования : x264 core 130 r2273 b3065e6
Настройки программы : cabac=1 / ref=9 / deblock=1:0:0 / analyse=0x3:0 / me=umh / subme=9 / psy=1 / psy_rd=1.00:0.10 / mixed_ref=1 / me_range=24 / chroma_me=0 / trellis=1 / 8x8dct=1 / cqm=0 / deadzone=21,11 / fast_pskip=0 / chroma_qp_offset=-3 / threads=6 / lookahead_threads=1 / sliced_threads=0 / nr=0 / decimate=0 / interlaced=0 / bluray_compat=0 / constrained_intra=0 / bframes=6 / b_pyramid=2 / b_adapt=2 / b_bias=0 / direct=1 / weightb=1 / open_gop=0 / weightp=2 / keyint=250 / keyint_min=25 / scenecut=40 / intra_refresh=0 / rc=crf / mbtree=0 / crf=14.0 / qcomp=0.60 / qpmin=0 / qpmax=69 / qpstep=4 / ip_ratio=1.40 / pb_ratio=1.30 / aq=1:1.00
Язык : English
Default : Да
Forced : Нет
Аудио
Идентификатор : 2
Формат : AC-3
Формат/Информация : Audio Coding 3
Расширение режима : CM (complete main)
Параметр Endianness формата : Big
Идентификатор кодека : A_AC3
Продолжительность : 1 ч. 41 м.
Вид битрейта : Постоянный
Битрейт : 320 Кбит/сек
Каналы : 2 канала
Расположение каналов : Front: L R
Частота : 48,0 КГц
Битовая глубина : 16 бит
Метод сжатия : С потерями
Размер потока : 233 Мбайт (2%)
Заголовок : Rus
Язык : Russian
Default : Нет
Forced : Нет
Меню
00:00:00.000 : :Chapter 01
00:07:19.522 : :Chapter 02
00:14:30.870 : :Chapter 03
00:22:07.951 : :Chapter 04
00:27:56.216 : :Chapter 05
00:36:20.469 : :Chapter 06
00:42:00.017 : :Chapter 07
00:48:49.718 : :Chapter 08
00:55:52.682 : :Chapter 09
01:02:10.101 : :Chapter 10
01:09:55.274 : :Chapter 11
01:14:44.271 : :Chapter 12
01:19:48.658 : :Chapter 13
01:26:27.432 : :Chapter 14
01:33:52.752 : :Chapter 15
01:36:21.901 : :Chapter 16
Скриншоты:
[th]http://i1.imageban.ru/out/2014/02/07/ca716f4507af54...859b4de.png[/th] [th]http://i1.imageban.ru/out/2014/02/07/49d14376d1e476...add0503.png[/th] [th]http://i1.imageban.ru/out/2014/02/07/e8de6ae332a321...01e2ac1.png[/th] [th]http://i1.imageban.ru/out/2014/02/07/a6cf287a09267b...7c9304e.png[/th]
Время раздачи: 24/7-Рэмбо 4: Джон Рэмбо/Rambo-Оригинальное название: Rambo
Год выпуска: 2007
Жанр: Боевик, Триллер
Производство: США, Германия
Описание фильма:
Вьетнамский ветеран Джон Рэмбо ведет уединенный образ жизни на окраине Бангкока. Уставший от борьбы и кровопролития, скрываясь от проблем, он селится в небольшом доме у реки и проводит дни, ремонтируя старые лодки и катера. Однако судьба вновь заставляет его взяться за оружие. Собрав отряд из пяти наемников, Рэмбо встает на защиту жителей тайской деревни и американских миссионеров, которых захватили в заложники бирманские боевики.
Режиссер: Сильвестр Сталлоне
Актеры: Сильвестр Сталлоне, Джули Бенц, Мэттью Мэрсден, Грэм МакТавиш, Рейнальдо Гальегос, Джэйк Ла Ботц, Тим Кенг, Манг Манг Хим, Пол Шульц, Камерон Пирсон
Продолжительность: 01:31:32
Качество видео: BDRip
Перевод: Дублированный
[kp]104952[/kp] [imdb]tt0462499[/imdb]
Видеокодек: MPEG-4 AVC/H.264
Битрейт видео: ~11800 kb/s
Размер кадра: 1280*528
Аудиокодек: AC3 5.1
Битрейт аудио: 640 kb/s
Сэмпл: Ссылка В 2,5 раза больше кадров!
В 2,5 раза больше исходника!
В 2,5 раза плавнее! (59,94 fps)
Приятного просмотра.

MI

Общее
Уникальный идентификатор : 230309462026061985904489837226104899374 (0xAD43FD2B1E143840971C0C19BF7EC72E)
Полное имя : Z:\Фильмы\Рэмбо\Рэмбо 4 Джон Рэмбо.mkv
Формат : Matroska
Версия формата : Version 4 / Version 2
Размер файла : 8,13 Гбайт
Продолжительность : 1 ч. 31 м.
Общий поток : 12,7 Мбит/сек
Название фильма : --SCHUMAHER--
Дата кодирования : UTC 2014-02-07 10:16:11
Программа кодирования : mkvmerge v6.7.0 ('Back to the Ground') 64bit built on Jan 8 2014 15:10:52
Библиотека кодирования : libebml v1.3.0 + libmatroska v1.4.1
Видео
Идентификатор : 1
Формат : AVC
Формат/Информация : Advanced Video Codec
Профиль формата : [email protected]
Параметр CABAC формата : Да
Параметр ReFrames формата : 9 кадров
Идентификатор кодека : V_MPEG4/ISO/AVC
Продолжительность : 1 ч. 31 м.
Битрейт : 11,8 Мбит/сек
Ширина : 1280 пикселей
Высота : 528 пикселей
Соотношение сторон : 2,40:1
Режим частоты кадров : Постоянный
Частота кадров : 59,880 кадров/сек
Частота кадров в оригинале : 59,940 кадров/сек
Цветовое пространство : YUV
Субдискретизация насыщенности : 4:2:0
Битовая глубина : 8 бит
Тип развёртки : Прогрессивная
Бит/(Пиксели*Кадры) : 0.292
Размер потока : 7,56 Гбайт (93%)
Библиотека кодирования : x264 core 130 r2273 b3065e6
Настройки программы : cabac=1 / ref=9 / deblock=1:0:0 / analyse=0x3:0 / me=umh / subme=9 / psy=1 / psy_rd=1.00:0.10 / mixed_ref=1 / me_range=24 / chroma_me=0 / trellis=1 / 8x8dct=1 / cqm=0 / deadzone=21,11 / fast_pskip=0 / chroma_qp_offset=-3 / threads=6 / lookahead_threads=1 / sliced_threads=0 / nr=0 / decimate=0 / interlaced=0 / bluray_compat=0 / constrained_intra=0 / bframes=6 / b_pyramid=2 / b_adapt=2 / b_bias=0 / direct=1 / weightb=1 / open_gop=0 / weightp=2 / keyint=250 / keyint_min=25 / scenecut=40 / intra_refresh=0 / rc=crf / mbtree=0 / crf=14.0 / qcomp=0.60 / qpmin=0 / qpmax=69 / qpstep=4 / ip_ratio=1.40 / pb_ratio=1.30 / aq=1:1.00
Язык : English
Default : Да
Forced : Нет
Аудио
Идентификатор : 2
Формат : AC-3
Формат/Информация : Audio Coding 3
Расширение режима : CM (complete main)
Параметр Endianness формата : Big
Идентификатор кодека : A_AC3
Продолжительность : 1 ч. 31 м.
Вид битрейта : Постоянный
Битрейт : 640 Кбит/сек
Каналы : 6 каналов
Расположение каналов : Front: L C R, Side: L R, LFE
Частота : 48,0 КГц
Битовая глубина : 16 бит
Метод сжатия : С потерями
Размер потока : 419 Мбайт (5%)
Заголовок : Rus
Язык : Russian
Default : Да
Forced : Нет
Меню
00:00:00.000 : en:00:00:00.000
00:06:05.365 : en:00:06:05.365
00:13:15.586 : en:00:13:15.586
00:19:38.844 : en:00:19:38.844
00:22:54.455 : en:00:22:54.455
00:30:59.022 : en:00:30:59.022
00:37:30.081 : en:00:37:30.081
00:43:18.929 : en:00:43:18.929
00:48:02.713 : en:00:48:02.713
00:50:31.068 : en:00:50:31.068
00:55:54.224 : en:00:55:54.224
01:03:08.909 : en:01:03:08.909
01:08:06.039 : en:01:08:06.039
01:16:30.877 : en:01:16:30.877
01:22:51.882 : en:01:22:51.882
01:27:18.149 : en:01:27:18.149
Скриншоты:
[th]http://i3.imageban.ru/out/2014/02/07/2522077a4b438b...1a523a8.png[/th] [th]http://i2.imageban.ru/out/2014/02/07/b1b87b5e84b34d...75eefcc.png[/th] [th]http://i4.imageban.ru/out/2014/02/07/0d898ad3b39fab...5f989ce.png[/th] [th]http://i4.imageban.ru/out/2014/02/07/269e3f9dcf148d...051468b.png[/th]

[Цитировать]



Показать сообщения:    

Текущее время: 05-Дек 17:39

Часовой пояс: UTC + 3


Вы не можете начинать темы
Вы не можете отвечать на сообщения
Вы не можете редактировать свои сообщения
Вы не можете удалять свои сообщения
Вы не можете голосовать в опросах
Вы не можете прикреплять файлы к сообщениям
Вы не можете скачивать файлы

!ВНИМАНИЕ!
Сайт не предоставляет электронные версии произведений, а занимается лишь коллекционированием и каталогизацией ссылок, присылаемых и публикуемых на форуме нашими читателями. Если вы являетесь правообладателем какого-либо представленного материала и не желаете, чтобы ссылка на него находилась в нашем каталоге, свяжитесь с нами, и мы незамедлительно удалим ее. Файлы для обмена на трекере предоставлены пользователями сайта, и администрация не несет ответственности за их содержание. Просьба не заливать файлы, защищенные авторскими правами, а также файлы нелегального содержания!