[ Сегодня идет свободное скачивание без начисления Download ]


Статистика раздачи
Нет
 
   
 
 
 
-Красная плесень - Альбомы (1992-2009)-
Год: 1995-2009
Жанр: punk
Продолжительность: 33:42:28
Кодек: FLAC/APE
Битрейт: Lossless

Треклист

"Удар по яйцам" Кодек: FLAC
Продолжительность: 00:41:05
Трек лист:
1. 1.Японцы
2. Чтоб девчёнок закадрить
3. Письмо от рабочих урала
4. Отрывает от земли
5. Мозоль
6. Фабрика отрыжек
7. На скотном дворе
8. Капец
9. Плавал как-то
10. Новогодний превед
11. Сегодня я оденусь круто
12. Пидираст
13. Коксохим
14. Жора
15. На Поле Зреет
16. Ржавое Солнце
17. Свинцовый Туман
18. Я Себе Нарисую
19. Мой Кот Василий
20. Бонус(Дятлы на ЙУХ)

EAC

Exact Audio Copy V0.99 prebeta 4 from 23. January 2008
Отчёт EAC об извлечении, выполненном 16. мая 2009, 17:29
Красная Плесень №3 / Удар по яйцам
Дисковод: ASUS DRW-1814BL Adapter: 1 ID: 0
Режим чтения : Достоверность
Использование точного потока : Да
Отключение кэша аудио : Да
Использование указателей C2 : Нет
Коррекция смещения при чтении : 6
Способность читать области Lead-in и Lead-out : Нет
Заполнение пропущенных сэмплов тишиной : Да
Удаление блоков с тишиной в начале и конце : Нет
При вычислениях CRC использовались нулевые сэмплы : Да
Интерфейс : Встроенный Win32-интерфейс для Win NT/2000
Выходной формат : Внутренние WAV-операции
Формат сэмплов : 44.100 Гц; 16 бит; стерео
TOC извлечённого CD
Трек | Старт | Длительность | Начальный сектор | Конечный сектор
---------------------------------------------------------------------
1 | 0:00.00 | 2:50.24 | 0 | 12773
2 | 2:50.24 | 1:09.08 | 12774 | 17956
3 | 3:59.32 | 4:01.26 | 17957 | 36057
4 | 8:00.58 | 1:48.16 | 36058 | 44173
5 | 9:48.74 | 1:56.07 | 44174 | 52880
6 | 11:45.06 | 3:23.33 | 52881 | 68138
7 | 15:08.39 | 2:06.36 | 68139 | 77624
8 | 17:15.00 | 1:20.34 | 77625 | 83658
9 | 18:35.34 | 2:03.58 | 83659 | 92941
10 | 20:39.17 | 1:02.41 | 92942 | 97632
11 | 21:41.58 | 1:23.38 | 97633 | 103895
12 | 23:05.21 | 1:51.16 | 103896 | 112236
13 | 24:56.37 | 2:28.39 | 112237 | 123375
14 | 27:25.01 | 1:45.19 | 123376 | 131269
15 | 29:10.20 | 1:24.41 | 131270 | 137610
16 | 30:34.61 | 3:17.11 | 137611 | 152396
17 | 33:51.72 | 2:25.19 | 152397 | 163290
18 | 36:17.16 | 1:31.59 | 163291 | 170174
19 | 37:49.00 | 1:33.13 | 170175 | 177162
20 | 39:22.13 | 1:43.32 | 177163 | 184919
Характеристики диапазона извлечения и сообщения об ошибках
Выбранный диапазон
Имя файла E:\Красная Плесень\№3 - Удар по яйцам\Красная Плесень №3 - Удар по яйцам.wav
Пиковый уровень 98.8 %
Качество диапазона 99.9 %
CRC теста 664F1DEC
CRC копии 664F1DEC
Копирование... OK
Ошибок не произошло
AccurateRip: сводка
Трек 1 нет в базе данных
Трек 2 нет в базе данных
Трек 3 нет в базе данных
Трек 4 нет в базе данных
Трек 5 нет в базе данных
Трек 6 нет в базе данных
Трек 7 нет в базе данных
Трек 8 нет в базе данных
Трек 9 нет в базе данных
Трек 10 нет в базе данных
Трек 11 нет в базе данных
Трек 12 нет в базе данных
Трек 13 нет в базе данных
Трек 14 нет в базе данных
Трек 15 нет в базе данных
Трек 16 нет в базе данных
Трек 17 нет в базе данных
Трек 18 нет в базе данных
Трек 19 нет в базе данных
Трек 20 нет в базе данных
Ни одного трека нет в базе AccurateRip
Конец отчёта

AUDIOCHECKER

AUDIOCHECKER v2.0 beta (build 457) - by Dester - opdester@freemail.hu
~~~~~~~~~~~~~~~~~~~~~~~~~~~~~~~~~~
Started at: пятница, 05. 06. 2009. - 21:09.57
1 file found
1 -===- F:\Красная плесень\№3 - Удар по яйцам\Красная Плесень №3 - Удар по яйцам.flac
Extracted successfully
Conclusion: this track is CDDA with probability 100%
Tempfile successfully deleted.
Finished at: пятница, 05. 06. 2009. - 21:14.33 (operation time: 0:04.36)
"Новый Год" Кодек: FLAC
Продолжительность: 00:51:19
Трек лист:
1. Вступление
2. Новый год
3. Девушка лежит
4. Колхозный Рок-н-ролл
5. Во, [однако]!
6. Песня про любовь
7. Осень
8. Я достал свой...
9. Я кошу коноплю
10. Плачет девушка в автомате
11. На дэнсе
12. Капитан
13. В сортире
14. Петро
15. Уйти во мрак
16. Прощай, моя последняя любовь
17. На землю капает дождь
18. Я бы...

EAC

Exact Audio Copy V0.99 prebeta 4 from 23. January 2008
Отчёт EAC об извлечении, выполненном 17. февраля 2009, 4:00
Красная Плесень / Новый год
Дисковод: Optiarc DVD RW AD-7190A Adapter: 1 ID: 0
Режим чтения : Достоверность
Использование точного потока : Да
Отключение кэша аудио : Да
Использование указателей C2 : Нет
Коррекция смещения при чтении : 6
Способность читать области Lead-in и Lead-out : Нет
Заполнение пропущенных сэмплов тишиной : Да
Удаление блоков с тишиной в начале и конце : Нет
При вычислениях CRC использовались нулевые сэмплы : Да
Интерфейс : Установленный внешний ASPI-интерфейс
Выходной формат : Внутренние WAV-операции
Формат сэмплов : 44.100 Гц; 16 бит; стерео
TOC извлечённого CD
Трек | Старт | Длительность | Начальный сектор | Конечный сектор
---------------------------------------------------------------------
1 | 0:00.00 | 3:23.26 | 0 | 15250
2 | 3:23.26 | 0:33.42 | 15251 | 17767
3 | 3:56.68 | 1:40.24 | 17768 | 25291
4 | 5:37.17 | 2:33.65 | 25292 | 36831
5 | 8:11.07 | 3:10.07 | 36832 | 51088
6 | 11:21.14 | 1:42.51 | 51089 | 58789
7 | 13:03.65 | 2:26.19 | 58790 | 69758
8 | 15:30.09 | 1:50.02 | 69759 | 78010
9 | 17:20.11 | 2:02.51 | 78011 | 87211
10 | 19:22.62 | 2:41.21 | 87212 | 99307
11 | 22:04.08 | 1:28.60 | 99308 | 105967
12 | 23:32.68 | 2:31.46 | 105968 | 117338
13 | 26:04.39 | 2:14.52 | 117339 | 127440
14 | 28:19.16 | 0:15.42 | 127441 | 128607
15 | 28:34.58 | 2:21.37 | 128608 | 139219
16 | 30:56.20 | 3:05.61 | 139220 | 153155
17 | 34:02.06 | 2:35.28 | 153156 | 164808
18 | 36:37.34 | 2:34.47 | 164809 | 176405
19 | 39:12.06 | 2:12.72 | 176406 | 186377
20 | 41:25.03 | 3:00.57 | 186378 | 199934
21 | 44:25.60 | 1:21.02 | 199935 | 206011
22 | 45:46.62 | 1:22.48 | 206012 | 212209
23 | 47:09.35 | 0:34.49 | 212210 | 214808
24 | 47:44.09 | 1:58.72 | 214809 | 223730
25 | 49:43.06 | 1:36.60 | 223731 | 230990
Характеристики диапазона извлечения и сообщения об ошибках
Выбранный диапазон
Имя файла D:\Russian\FLAC_APE (image+.cue)\Красная плесень\Новый год (1994)\Красная Плесень - Новый год (1994).wav
Пиковый уровень 70.8 %
Качество диапазона 99.9 %
CRC копии 0C924D0D
Копирование... OK
Ошибок не произошло
Конец отчёта

AUDIOCHECKER

AUDIOCHECKER v2.0 beta (build 457) - by Dester - opdester@freemail.hu
~~~~~~~~~~~~~~~~~~~~~~~~~~~~~~~~~~
Started at: пятница, 05. 06. 2009. - 21:56.08
1 file found
1 -===- F:\Красная плесень\№5 Новый год [2006, Master Sound, MS CD 70306] (1994)\Красная Плесень - Новый год (1994).flac
Extracted successfully
Conclusion: this track is CDDA with probability 99%
Tempfile successfully deleted.
Finished at: пятница, 05. 06. 2009. - 22:02.10 (operation time: 0:06.02)
"Девятый бред" Кодек: FLAC
Продолжительность: 01:06:37
Трек лист:
1. Привет
2. Сопля
3. Гости
4. В первый раз
5. Повестка
6. Грибки
7. Бабушка и внучек
8. Трансвеститы
9. Камыши
10. Крюгер
11. Частушки
12. Чебуратор
13. Вторая часть дебильного Рок-н-ролла
14. Сельский полицай
15. I like to move it
16. И не в склад и не в лад
17. Ку-ку-нале
18. Компот
19. Первая любовь
20. Муравей
21. Металлолом
22. Фетишизм
23. Трамвай
24. Как клево в армии
25. Конченая [однако]
26. Дым сигарет с самогонкой
27. Девушка в очках
28. Позишн намбэр ту
29. Финал

EAC

Exact Audio Copy V0.99 prebeta 5 from 4. May 2009
Отчёт EAC об извлечении, выполненном 10. мая 2009, 23:01
Красная Плесень / Девятый бред
Дисковод: _NEC DVD_RW ND-3520A Adapter: 1 ID: 2
Режим чтения : Достоверность
Использование точного потока : Да
Отключение кэша аудио : Да
Использование указателей C2 : Нет
Комбинированное смещение чтения/записи : 48
Способность читать области Lead-in и Lead-out : Нет
Заполнение пропущенных сэмплов тишиной : Да
Удаление блоков с тишиной в начале и конце : Нет
При вычислениях CRC использовались нулевые сэмплы : Да
Интерфейс : Установленный внешний ASPI-интерфейс
Выходной формат : Внутренние WAV-операции
Формат сэмплов : 44.100 Гц; 16 бит; стерео
TOC извлечённого CD
Трек | Старт | Длительность | Начальный сектор | Конечный сектор
---------------------------------------------------------------------
1 | 0:00.00 | 1:58.43 | 0 | 8892
2 | 1:58.43 | 3:04.54 | 8893 | 22746
3 | 5:03.22 | 2:59.15 | 22747 | 36186
4 | 8:02.37 | 2:31.42 | 36187 | 47553
5 | 10:34.04 | 2:16.30 | 47554 | 57783
6 | 12:50.34 | 2:09.66 | 57784 | 67524
7 | 15:00.25 | 2:48.09 | 67525 | 80133
8 | 17:48.34 | 2:57.33 | 80134 | 93441
9 | 20:45.67 | 1:32.35 | 93442 | 100376
10 | 22:18.27 | 3:25.57 | 100377 | 115808
11 | 25:44.09 | 2:14.15 | 115809 | 125873
12 | 27:58.24 | 1:58.02 | 125874 | 134725
13 | 29:56.26 | 3:24.21 | 134726 | 150046
14 | 33:20.47 | 1:56.68 | 150047 | 158814
15 | 35:17.40 | 2:30.24 | 158815 | 170088
16 | 37:47.64 | 1:41.22 | 170089 | 177685
17 | 39:29.11 | 1:26.05 | 177686 | 184140
18 | 40:55.16 | 2:15.16 | 184141 | 194281
19 | 43:10.32 | 2:53.38 | 194282 | 207294
20 | 46:03.70 | 0:57.10 | 207295 | 211579
21 | 47:01.05 | 1:02.61 | 211580 | 216290
22 | 48:03.66 | 1:21.29 | 216291 | 222394
23 | 49:25.20 | 1:25.14 | 222395 | 228783
24 | 50:50.34 | 2:25.33 | 228784 | 239691
25 | 53:15.67 | 1:53.38 | 239692 | 248204
26 | 55:09.30 | 2:29.70 | 248205 | 259449
27 | 57:39.25 | 2:09.72 | 259450 | 269196
28 | 59:49.22 | 1:48.54 | 269197 | 277350
29 | 61:38.01 | 1:57.09 | 277351 | 286134
30 | 66:07.10 | 0:30.28 | 297535 | 299812
Характеристики диапазона извлечения и сообщения об ошибках
Выбранный диапазон
Имя файла C:\Красная Плесень - Девятый бред\Красная Плесень - Девятый бред.wav
Пиковый уровень 98.8 %
Качество диапазона 100.0 %
CRC копии E72A1A8E
Копирование... OK
Ошибок не произошло
Конец отчёта

AUDIOCHECKER

AUDIOCHECKER v2.0 beta (build 457) - by Dester - opdester@freemail.hu
~~~~~~~~~~~~~~~~~~~~~~~~~~~~~~~~~~
Started at: пятница, 05. 06. 2009. - 22:26.53
1 file found
1 -===- F:\Красная плесень\№9 - Девятый бред\Красная Плесень - Девятый бред.flac
Extracted successfully
Conclusion: this track is CDDA with probability 100%
Tempfile successfully deleted.
Finished at: пятница, 05. 06. 2009. - 22:34.17 (operation time: 0:07.24)
"Профессор Бибизинский и китайский размер тапок" Кодек: APE
Продолжительность: 01:03:09
Трек лист:
1. Я хороший хлопэць
2. Синие сандали
3. Директор школы
4. Вечный бой
5. Вчера
6. Кан тугеза
7. Гагарин
8. Муха
9. На дискотеку сельскую
10. Рецепт щей
11. Пьяный ежик
12. Свинья
13. Тихо в лесу
14. Подбей косую
15. Клиническая смерть

EAC

Exact Audio Copy V0.99 prebeta 4 from 23. January 2008
Отчёт EAC об извлечении, выполненном 14. мая 2009, 12:30
Красная Плесень / Профессор Бибизинский и китайский размер тапок
Дисковод: Optiarc DVD RW AD-7200S Adapter: 4 ID: 0
Режим чтения : Достоверность
Использование точного потока : Да
Отключение кэша аудио : Да
Использование указателей C2 : Нет
Коррекция смещения при чтении : 48
Способность читать области Lead-in и Lead-out : Нет
Заполнение пропущенных сэмплов тишиной : Да
Удаление блоков с тишиной в начале и конце : Нет
При вычислениях CRC использовались нулевые сэмплы : Да
Интерфейс : Встроенный Win32-интерфейс для Win NT/2000
Выходной формат : Внутренние WAV-операции
Формат сэмплов : 44.100 Гц; 16 бит; стерео
TOC извлечённого CD
Трек | Старт | Длительность | Начальный сектор | Конечный сектор
---------------------------------------------------------------------
1 | 0:00.00 | 5:07.25 | 0 | 23049
2 | 5:07.25 | 4:19.65 | 23050 | 42539
3 | 9:27.15 | 4:08.05 | 42540 | 61144
4 | 13:35.20 | 3:07.00 | 61145 | 75169
5 | 16:42.20 | 3:33.60 | 75170 | 91204
6 | 20:16.05 | 5:11.40 | 91205 | 114569
7 | 25:27.45 | 3:39.05 | 114570 | 130999
8 | 29:06.50 | 3:02.55 | 131000 | 144704
9 | 32:09.30 | 5:13.30 | 144705 | 168209
10 | 37:22.60 | 2:43.00 | 168210 | 180434
11 | 40:05.60 | 6:31.70 | 180435 | 209829
12 | 46:37.55 | 2:31.45 | 209830 | 221199
13 | 49:09.25 | 4:01.20 | 221200 | 239294
14 | 53:10.45 | 4:53.55 | 239295 | 261324
15 | 58:04.25 | 5:05.05 | 261325 | 284204
Характеристики диапазона извлечения и сообщения об ошибках
Выбранный диапазон
Имя файла C:\Documents and Settings\Администратор\Рабочий стол\кп2\Красная Плесень - Профессор Бибизинский и китайский размер тапок.wav
Пиковый уровень 99.5 %
Качество диапазона 99.9 %
CRC копии D1DB24B5
Копирование... OK
Ошибок не произошло
AccurateRip: сводка
Трек 1 нет в базе данных
Трек 2 нет в базе данных
Трек 3 нет в базе данных
Трек 4 нет в базе данных
Трек 5 нет в базе данных
Трек 6 нет в базе данных
Трек 7 нет в базе данных
Трек 8 нет в базе данных
Трек 9 нет в базе данных
Трек 10 нет в базе данных
Трек 11 нет в базе данных
Трек 12 нет в базе данных
Трек 13 нет в базе данных
Трек 14 нет в базе данных
Трек 15 нет в базе данных
Ни одного трека нет в базе AccurateRip
Конец отчёта

AUDIOCHECKER

AUDIOCHECKER v2.0 beta (build 457) - by Dester - opdester@freemail.hu
~~~~~~~~~~~~~~~~~~~~~~~~~~~~~~~~~~
Started at: пятница, 05. 06. 2009. - 22:51.01
1 file found
1 -===- F:\Красная плесень\№14 - Профессор Бибизинский и китайский размер тапок (APE)\Красная Плесень - Профессор Бибизинский и китайский размер тапок.ape
Extracted successfully
Conclusion: this track is CDDA with probability 100%
Tempfile successfully deleted.
Finished at: пятница, 05. 06. 2009. - 22:59.14 (operation time: 0:08.13)
"Бульбец титанику" Кодек: FLAC
Продолжительность: 00:47:29
Трек лист:
1. Вступление
2. Тырлы пырлы
3. Собаки на луне
4. Ветер в жопу дул
5. Мальчик и [отстой]
6. Милая [однако]
7. Заходыть до...
8. Сонячный зайчик [однако]
9. Дэнс - микс
10. Нэсэ Галю цыцки
11. Лучше нет...
12. Обосратый Балалайкин (ремикс)
13. Укуренный волшебник
14. Бабка и танк
15. Ничего на свете
16. Мороз
17. Злоебучая осень (ремикс)
18. Ты сказала
19. Любимая бабушка (ремикс)

EAC

Exact Audio Copy V0.99 prebeta 4 from 23. January 2008
EAC extraction logfile from 23. May 2009, 0:20
Красная Плесень / Бульбец Титанику
Used drive : PLEXTOR DVDR PX-820A Adapter: 4 ID: 0
Read mode : Secure
Utilize accurate stream : Yes
Defeat audio cache : Yes
Make use of C2 pointers : No
Read offset correction : 48
Overread into Lead-In and Lead-Out : No
Fill up missing offset samples with silence : Yes
Delete leading and trailing silent blocks : No
Null samples used in CRC calculations : Yes
Used interface : Native Win32 interface for Win NT & 2000
Used output format : Internal WAV Routines
Sample format : 44.100 Hz; 16 Bit; Stereo
TOC of the extracted CD
Track | Start | Length | Start sector | End sector
---------------------------------------------------------
1 | 0:00.00 | 3:15.27 | 0 | 14651
2 | 3:15.27 | 2:48.08 | 14652 | 27259
3 | 6:03.35 | 0:42.10 | 27260 | 30419
4 | 6:45.45 | 2:45.56 | 30420 | 42850
5 | 9:31.26 | 0:43.71 | 42851 | 46146
6 | 10:15.22 | 3:47.66 | 46147 | 63237
7 | 14:03.13 | 0:17.29 | 63238 | 64541
8 | 14:20.42 | 3:55.67 | 64542 | 82233
9 | 18:16.34 | 3:24.70 | 82234 | 97603
10 | 21:41.29 | 2:21.60 | 97604 | 108238
11 | 24:03.14 | 0:24.24 | 108239 | 110062
12 | 24:27.38 | 5:09.37 | 110063 | 133274
13 | 29:37.00 | 2:02.06 | 133275 | 142430
14 | 31:39.06 | 2:27.44 | 142431 | 153499
15 | 34:06.50 | 4:21.17 | 153500 | 173091
16 | 38:27.67 | 1:08.26 | 173092 | 178217
17 | 39:36.18 | 2:43.20 | 178218 | 190462
18 | 42:19.38 | 2:31.26 | 190463 | 201813
19 | 44:50.64 | 2:38.67 | 201814 | 213730
Range status and errors
Selected range
Filename F:\EAC\Красная Плесень\№17 - Бульбец Титанику\Красная Плесень - Бульбец Титанику.wav
Suspicious position 0:05:04
Peak level 98.6 %
Range quality 99.9 %
Copy CRC 017458BF
Copy finished
There were errors
AccurateRip summary
Track 1 cannot be verified as accurate (confidence 1) [744E0E20], AccurateRip returned [3A102E32]
Track 2 cannot be verified as accurate (confidence 1) [E90557B7], AccurateRip returned [90B86F9A]
Track 3 cannot be verified as accurate (confidence 1) [65D4228A], AccurateRip returned [CBABE4E3]
Track 4 cannot be verified as accurate (confidence 1) [F6FD0E0D], AccurateRip returned [400C8712]
Track 5 cannot be verified as accurate (confidence 1) [DD15C5F2], AccurateRip returned [FF0297E6]
Track 6 cannot be verified as accurate (confidence 1) [4AB0C620], AccurateRip returned [3DB2BCE5]
Track 7 cannot be verified as accurate (confidence 1) [B8B0E3E3], AccurateRip returned [4B214B8C]
Track 8 cannot be verified as accurate (confidence 1) [8E610C80], AccurateRip returned [31C57FEE]
Track 9 cannot be verified as accurate (confidence 1) [1E56B4E7], AccurateRip returned [D7D1391A]
Track 10 cannot be verified as accurate (confidence 1) [0B5AEED8], AccurateRip returned [4ABD5B34]
Track 11 cannot be verified as accurate (confidence 1) [2B455103], AccurateRip returned [C1709F39]
Track 12 cannot be verified as accurate (confidence 1) [709EE710], AccurateRip returned [2D373823]
Track 13 cannot be verified as accurate (confidence 1) [85E968B9], AccurateRip returned [CFDEF2CA]
Track 14 cannot be verified as accurate (confidence 1) [D1E1657E], AccurateRip returned [07BD951C]
Track 15 cannot be verified as accurate (confidence 1) [B84FB452], AccurateRip returned [0400C237]
Track 16 cannot be verified as accurate (confidence 1) [8DA7DCE4], AccurateRip returned [1DE8C855]
Track 17 cannot be verified as accurate (confidence 1) [31AEEF56], AccurateRip returned [62C6C28A]
Track 18 cannot be verified as accurate (confidence 1) [E51C3EDD], AccurateRip returned [C7DAC351]
Track 19 cannot be verified as accurate (confidence 1) [2577B209], AccurateRip returned [D403E116]
No tracks could be verified as accurate
End of status report

AUDIOCHECKER

AUDIOCHECKER v2.0 beta (build 457) - by Dester - opdester@freemail.hu
~~~~~~~~~~~~~~~~~~~~~~~~~~~~~~~~~~
Started at: суббота, 06. 06. 2009. - 17:20.05
1 file found
1 -===- F:\Красная плесень\№17 - Бульбец Титанику\Красная Плесень №17 - Бульбец Титанику.flac
Extracted successfully
Conclusion: this track is CDDA with probability 100%
Tempfile successfully deleted.
Finished at: суббота, 06. 06. 2009. - 17:25.17 (operation time: 0:05.12)
"СОЮЗ популярных пародий 717" Кодек: FLAC
Продолжительность: 00:46:35
Трек лист:
1. Какао
2. Тополиный пух, блин
3. Ты кинул меня
4. Красиво
5. Крылышки - прокладки
6. 178500
7. Голубая луна
8. Ты назови его в честь меня
9. Злыдень 2000
10. Девочка - видение
11. Чужие руки
12. Ковыляй потихонечку
13. Ай ай ай, ого
14. Море волнуется раз...

EAC

Exact Audio Copy V0.99 prebeta 4 from 23. January 2008
EAC extraction logfile from 22. May 2009, 22:12
Красная Плесень / СОЮЗ популярных пародий 717
Used drive : PLEXTOR DVDR PX-820A Adapter: 4 ID: 0
Read mode : Secure
Utilize accurate stream : Yes
Defeat audio cache : Yes
Make use of C2 pointers : No
Read offset correction : 48
Overread into Lead-In and Lead-Out : No
Fill up missing offset samples with silence : Yes
Delete leading and trailing silent blocks : No
Null samples used in CRC calculations : Yes
Used interface : Native Win32 interface for Win NT & 2000
Used output format : Internal WAV Routines
Sample format : 44.100 Hz; 16 Bit; Stereo
TOC of the extracted CD
Track | Start | Length | Start sector | End sector
---------------------------------------------------------
1 | 0:00.00 | 3:22.13 | 0 | 15162
2 | 3:22.13 | 3:30.51 | 15163 | 30963
3 | 6:52.64 | 4:27.37 | 30964 | 51025
4 | 11:20.26 | 4:36.42 | 51026 | 71767
5 | 15:56.68 | 2:44.33 | 71768 | 84100
6 | 18:41.26 | 1:09.21 | 84101 | 89296
7 | 19:50.47 | 3:22.41 | 89297 | 104487
8 | 23:13.13 | 3:26.64 | 104488 | 120001
9 | 26:40.02 | 2:28.64 | 120002 | 131165
10 | 29:08.66 | 2:50.67 | 131166 | 143982
11 | 31:59.58 | 3:55.50 | 143983 | 161657
12 | 35:55.33 | 2:57.38 | 161658 | 174970
13 | 38:52.71 | 3:44.52 | 174971 | 191822
14 | 42:37.48 | 3:58.51 | 191823 | 209723
Range status and errors
Selected range
Filename F:\EAC\Красная Плесень\№20 - СОЮЗ популярных пародий 717\Красная Плесень - СОЮЗ популярных пародий 717.wav
Peak level 91.2 %
Range quality 99.9 %
Test CRC 6D2F838B
Copy CRC 6D2F838B
Copy OK
No errors occurred
AccurateRip summary
Track 1 not present in database
Track 2 not present in database
Track 3 not present in database
Track 4 not present in database
Track 5 not present in database
Track 6 not present in database
Track 7 not present in database
Track 8 not present in database
Track 9 not present in database
Track 10 not present in database
Track 11 not present in database
Track 12 not present in database
Track 13 not present in database
Track 14 not present in database
None of the tracks are present in the AccurateRip database
End of status report

AUDIOCHECKER

AUDIOCHECKER v2.0 beta (build 457) - by Dester - opdester@freemail.hu
~~~~~~~~~~~~~~~~~~~~~~~~~~~~~~~~~~
Started at: воскресенье, 07. 06. 2009. - 22:11.42
1 file found
1 -===- F:\Красная плесень\№20 - СОЮЗ популярных пародий 717\Красная Плесень №20 - СОЮЗ популярных пародий 717.flac
Extracted successfully
Conclusion: this track is CDDA with probability 100%
Tempfile successfully deleted.
Finished at: воскресенье, 07. 06. 2009. - 22:16.34 (operation time: 0:04.52)
"СОЮЗ популярных пародий
828"
Кодек: FLAC
Продолжительность: 00:50:52
Трек лист:
1. Здоров, Братаны..!
2. Лучше ты
3. Пьяная невеста
4. Родился Нигер
5. Новая примочка Бивиса
6. Утюг
7. Как хорошо быть...
8. Гонорейка
9. Считалка
10. Последняя
11. Гудмай АмерикА А! А! А!
12. Мы попали
13. Ох у е...
14. Девка с Уругвая
15. Два безхозных миллиона
16. Тополя
17. Конец

EAC

Exact Audio Copy V0.99 prebeta 4 from 23. January 2008
Отчёт EAC об извлечении, выполненном 2. мая 2009, 23:58
Красная Плесень №22 / СОЮЗ популярных пародий 828
Дисковод: ASUS DRW-1814BL Adapter: 1 ID: 0
Режим чтения : Достоверность
Использование точного потока : Да
Отключение кэша аудио : Да
Использование указателей C2 : Нет
Коррекция смещения при чтении : 6
Способность читать области Lead-in и Lead-out : Нет
Заполнение пропущенных сэмплов тишиной : Да
Удаление блоков с тишиной в начале и конце : Нет
При вычислениях CRC использовались нулевые сэмплы : Да
Интерфейс : Встроенный Win32-интерфейс для Win NT/2000
Выходной формат : Внутренние WAV-операции
Формат сэмплов : 44.100 Гц; 16 бит; стерео
TOC извлечённого CD
Трек | Старт | Длительность | Начальный сектор | Конечный сектор
---------------------------------------------------------------------
1 | 0:00.00 | 2:59.30 | 0 | 13454
2 | 2:59.30 | 3:23.00 | 13455 | 28679
3 | 6:22.30 | 3:12.21 | 28680 | 43100
4 | 9:34.51 | 3:25.59 | 43101 | 58534
5 | 13:00.35 | 0:41.17 | 58535 | 61626
6 | 13:41.52 | 2:00.35 | 61627 | 70661
7 | 15:42.12 | 3:17.32 | 70662 | 85468
8 | 18:59.44 | 3:12.09 | 85469 | 99877
9 | 22:11.53 | 3:44.24 | 99878 | 116701
10 | 25:56.02 | 2:54.34 | 116702 | 129785
11 | 28:50.36 | 3:37.64 | 129786 | 146124
12 | 32:28.25 | 2:39.23 | 146125 | 158072
13 | 35:07.48 | 2:28.24 | 158073 | 169196
14 | 37:35.72 | 3:33.36 | 169197 | 185207
15 | 41:09.33 | 1:48.43 | 185208 | 193350
16 | 42:58.01 | 3:32.14 | 193351 | 209264
17 | 46:30.15 | 4:22.25 | 209265 | 228939
Характеристики диапазона извлечения и сообщения об ошибках
Выбранный диапазон
Имя файла E:\Красная Плесень\№22 - СОЮЗ популярных пародий 828\Красная Плесень №22 - СОЮЗ популярных пародий 828.wav
Пиковый уровень 100.0 %
Качество диапазона 100.0 %
CRC теста 87F2E72E
CRC копии 87F2E72E
Копирование... OK
Ошибок не произошло
AccurateRip: сводка
Трек 1 нет в базе данных
Трек 2 нет в базе данных
Трек 3 нет в базе данных
Трек 4 нет в базе данных
Трек 5 нет в базе данных
Трек 6 нет в базе данных
Трек 7 нет в базе данных
Трек 8 нет в базе данных
Трек 9 нет в базе данных
Трек 10 нет в базе данных
Трек 11 нет в базе данных
Трек 12 нет в базе данных
Трек 13 нет в базе данных
Трек 14 нет в базе данных
Трек 15 нет в базе данных
Трек 16 нет в базе данных
Трек 17 нет в базе данных
Ни одного трека нет в базе AccurateRip
Конец отчёта

AUDIOCHECKER

AUDIOCHECKER v2.0 beta (build 457) - by Dester - opdester@freemail.hu
~~~~~~~~~~~~~~~~~~~~~~~~~~~~~~~~~~
Started at: воскресенье, 07. 06. 2009. - 23:30.47
1 file found
1 -===- F:\Красная плесень\№22 - СОЮЗ популярных пародий 828\Красная Плесень №22 - СОЮЗ популярных пародий 828.flac
Extracted successfully
Conclusion: this track is CDDA with probability 100%
Tempfile successfully deleted.
Finished at: воскресенье, 07. 06. 2009. - 23:36.19 (operation time: 0:05.32)
"СОЮЗ популярных пародий 1000" Кодек: FLAC
Продолжительность: 00:51:52
Трек лист:
1. Реклама
2. Ручки
3. Ловила на уши
4. Ковбои
5. Подруга моя
6. Каменная печень
7. Дэнс "Микс" 16
8. ЦРУ
9. ЗИЛ
10. Голодная
11. Ловила в цирке-2
12. Свеча
13. Серп-2
14. Адреналин-2
15. Сусанин
16. Хали Гали

EAC

Exact Audio Copy V0.99 prebeta 4 from 23. January 2008
Отчёт EAC об извлечении, выполненном 19. мая 2009, 18:23
Красная плесень №24 / СОЮЗ популярных пародий 1000
Дисковод: ASUS DRW-1814BL Adapter: 1 ID: 0
Режим чтения : Достоверность
Использование точного потока : Да
Отключение кэша аудио : Да
Использование указателей C2 : Нет
Коррекция смещения при чтении : 6
Способность читать области Lead-in и Lead-out : Нет
Заполнение пропущенных сэмплов тишиной : Да
Удаление блоков с тишиной в начале и конце : Нет
При вычислениях CRC использовались нулевые сэмплы : Да
Интерфейс : Встроенный Win32-интерфейс для Win NT/2000
Выходной формат : Внутренние WAV-операции
Формат сэмплов : 44.100 Гц; 16 бит; стерео
TOC извлечённого CD
Трек | Старт | Длительность | Начальный сектор | Конечный сектор
---------------------------------------------------------------------
1 | 0:00.00 | 3:00.30 | 0 | 13529
2 | 3:00.30 | 2:32.35 | 13530 | 24964
3 | 5:32.65 | 3:27.67 | 24965 | 40556
4 | 9:00.57 | 2:12.61 | 40557 | 50517
5 | 11:13.43 | 4:05.50 | 50518 | 68942
6 | 15:19.18 | 2:08.63 | 68943 | 78605
7 | 17:28.06 | 2:48.63 | 78606 | 91268
8 | 20:16.69 | 2:02.20 | 91269 | 100438
9 | 22:19.14 | 4:22.44 | 100439 | 120132
10 | 26:41.58 | 2:57.64 | 120133 | 133471
11 | 29:39.47 | 3:43.03 | 133472 | 150199
12 | 33:22.50 | 5:46.65 | 150200 | 176214
13 | 39:09.40 | 3:32.70 | 176215 | 192184
14 | 42:42.35 | 3:12.03 | 192185 | 206587
15 | 45:54.38 | 3:06.29 | 206588 | 220566
16 | 49:00.67 | 2:52.23 | 220567 | 233489
Характеристики диапазона извлечения и сообщения об ошибках
Выбранный диапазон
Имя файла E:\Красная Плесень\№24 - СОЮЗ популярных пародий 1000\Красная плесень №24 - СОЮЗ популярных пародий 1000.wav
Пиковый уровень 100.0 %
Качество диапазона 100.0 %
CRC теста F45E6F1D
CRC копии F45E6F1D
Копирование... OK
Ошибок не произошло
AccurateRip: сводка
Трек 1 нет в базе данных
Трек 2 нет в базе данных
Трек 3 нет в базе данных
Трек 4 нет в базе данных
Трек 5 нет в базе данных
Трек 6 нет в базе данных
Трек 7 нет в базе данных
Трек 8 нет в базе данных
Трек 9 нет в базе данных
Трек 10 нет в базе данных
Трек 11 нет в базе данных
Трек 12 нет в базе данных
Трек 13 нет в базе данных
Трек 14 нет в базе данных
Трек 15 нет в базе данных
Трек 16 нет в базе данных
Ни одного трека нет в базе AccurateRip
Конец отчёта

AUDIOCHECKER

AUDIOCHECKER v2.0 beta (build 457) - by Dester - opdester@freemail.hu
~~~~~~~~~~~~~~~~~~~~~~~~~~~~~~~~~~
Started at: понедельник, 08. 06. 2009. - 0:03.11
1 file found
1 -===- F:\Красная плесень\№24 - СОЮЗ популярных пародий 1000\Красная плесень №24 - СОЮЗ популярных пародий 1000.flac
Extracted successfully
Conclusion: this track is CDDA with probability 100%
Tempfile successfully deleted.
Finished at: понедельник, 08. 06. 2009. - 0:08.57 (operation time: 0:05.45)
"СОЮЗ популярных пародий 3003" Кодек: FLAC
Продолжительность: 00:45:29
Трек лист:
1. Моя папа
2. Меня зовут
3. Попытка
4. Хочется
5. Я сошёл с ума
6. Мой малыш
7. Охрене
8. Еш сало
9. Песня банщика
10. Мурка
11. Корвалола не будет
12. Африка
13. Собачка
14. Закаляйся
15. Поппури
16. Реклама

EAC

Exact Audio Copy V0.99 prebeta 4 from 23. January 2008
EAC extraction logfile from 22. May 2009, 22:56
Красная Плесень / Союз популярных пародий 3003
Used drive : PLEXTOR DVDR PX-820A Adapter: 4 ID: 0
Read mode : Secure
Utilize accurate stream : Yes
Defeat audio cache : Yes
Make use of C2 pointers : No
Read offset correction : 48
Overread into Lead-In and Lead-Out : No
Fill up missing offset samples with silence : Yes
Delete leading and trailing silent blocks : No
Null samples used in CRC calculations : Yes
Used interface : Native Win32 interface for Win NT & 2000
Used output format : Internal WAV Routines
Sample format : 44.100 Hz; 16 Bit; Stereo
TOC of the extracted CD
Track | Start | Length | Start sector | End sector
---------------------------------------------------------
1 | 0:00.00 | 2:31.58 | 0 | 11382
2 | 2:31.58 | 1:55.10 | 11383 | 20017
3 | 4:26.68 | 3:21.35 | 20018 | 35127
4 | 7:48.28 | 2:24.72 | 35128 | 45999
5 | 10:13.25 | 3:31.39 | 46000 | 61863
6 | 13:44.64 | 2:42.28 | 61864 | 74041
7 | 16:27.17 | 2:22.61 | 74042 | 84752
8 | 18:50.03 | 3:19.04 | 84753 | 99681
9 | 22:09.07 | 2:39.10 | 99682 | 111616
10 | 24:48.17 | 4:57.61 | 111617 | 133952
11 | 29:46.03 | 2:06.55 | 133953 | 143457
12 | 31:52.58 | 2:31.21 | 143458 | 154803
13 | 34:24.04 | 2:58.02 | 154804 | 168155
14 | 37:22.06 | 4:00.39 | 168156 | 186194
15 | 41:22.45 | 3:15.50 | 186195 | 200869
16 | 44:38.20 | 0:51.16 | 200870 | 204710
Range status and errors
Selected range
Filename F:\EAC\Красная Плесень\№20 - СОЮЗ популярных пародий 303\Красная Плесень - Союз популярных пародий 3003.wav
Peak level 100.0 %
Range quality 100.0 %
Test CRC 935DDE6D
Copy CRC 935DDE6D
Copy OK
No errors occurred
AccurateRip summary
Track 1 not present in database
Track 2 not present in database
Track 3 not present in database
Track 4 not present in database
Track 5 not present in database
Track 6 not present in database
Track 7 not present in database
Track 8 not present in database
Track 9 not present in database
Track 10 not present in database
Track 11 not present in database
Track 12 not present in database
Track 13 not present in database
Track 14 not present in database
Track 15 not present in database
Track 16 not present in database
None of the tracks are present in the AccurateRip database
End of status report

AUDIOCHECKER

AUDIOCHECKER v2.0 beta (build 457) - by Dester - opdester@freemail.hu
~~~~~~~~~~~~~~~~~~~~~~~~~~~~~~~~~~
Started at: понедельник, 08. 06. 2009. - 0:45.16
1 file found
1 -===- F:\Красная плесень\№26 - СОЮЗ популярных пародий 3003\Красная Плесень №26 - Союз популярных пародий 3003.flac
Extracted successfully
Conclusion: this track is CDDA with probability 100%
Tempfile successfully deleted.
Finished at: понедельник, 08. 06. 2009. - 0:50.28 (operation time: 0:05.11)
"СОЮЗ популярных пародий 2002" Кодек: FLAC
Продолжительность: 00:44:44
Трек лист:
1. Доколебал
2. Бабушка смеется
3. Рассеяный
4. Вобла и пельмени
5. Моя папа
6. Меня зовут
7. Попытка
8. Невеста
9. Трагедия мыколы
10. Корефаны вы мои
11. Какао
12. Луна
13. Я думал это телефончик ля-ля-ля
14. Ножки
15. Девочка-бурление

EAC

Exact Audio Copy V0.99 prebeta 4 from 23. January 2008
EAC extraction logfile from 22. May 2009, 23:57
Красная Плесень / СОЮЗ популярных пародий 2002
Used drive : PLEXTOR DVDR PX-820A Adapter: 4 ID: 0
Read mode : Secure
Utilize accurate stream : Yes
Defeat audio cache : Yes
Make use of C2 pointers : No
Read offset correction : 48
Overread into Lead-In and Lead-Out : No
Fill up missing offset samples with silence : Yes
Delete leading and trailing silent blocks : No
Null samples used in CRC calculations : Yes
Used interface : Native Win32 interface for Win NT & 2000
Used output format : Internal WAV Routines
Sample format : 44.100 Hz; 16 Bit; Stereo
TOC of the extracted CD
Track | Start | Length | Start sector | End sector
---------------------------------------------------------
1 | 0:00.00 | 2:48.13 | 0 | 12612
2 | 2:48.13 | 3:29.55 | 12613 | 28342
3 | 6:17.68 | 3:42.38 | 28343 | 45030
4 | 10:00.31 | 3:06.62 | 45031 | 59042
5 | 13:07.18 | 3:15.14 | 59043 | 73681
6 | 16:22.32 | 1:55.15 | 73682 | 82321
7 | 18:17.47 | 3:20.64 | 82322 | 97385
8 | 21:38.36 | 3:10.26 | 97386 | 111661
9 | 24:48.62 | 3:23.64 | 111662 | 126950
10 | 28:12.51 | 2:57.35 | 126951 | 140260
11 | 31:10.11 | 3:19.37 | 140261 | 155222
12 | 34:29.48 | 3:19.22 | 155223 | 170169
13 | 37:48.70 | 1:07.05 | 170170 | 175199
14 | 38:56.00 | 3:00.30 | 175200 | 188729
15 | 41:56.30 | 2:46.50 | 188730 | 201229
Range status and errors
Selected range
Filename F:\EAC\Красная Плесень\№28 - СОЮЗ популярных пародий 2002\Красная Плесень - СОЮЗ популярных пародий 2002.wav
Peak level 100.0 %
Range quality 99.9 %
Copy CRC A006777B
Copy OK
No errors occurred
AccurateRip summary
Track 1 not present in database
Track 2 not present in database
Track 3 not present in database
Track 4 not present in database
Track 5 not present in database
Track 6 not present in database
Track 7 not present in database
Track 8 not present in database
Track 9 not present in database
Track 10 not present in database
Track 11 not present in database
Track 12 not present in database
Track 13 not present in database
Track 14 not present in database
Track 15 not present in database
None of the tracks are present in the AccurateRip database
End of status report

AUDIOCHECKER

AUDIOCHECKER v2.0 beta (build 457) - by Dester - opdester@freemail.hu
~~~~~~~~~~~~~~~~~~~~~~~~~~~~~~~~~~
Started at: понедельник, 08. 06. 2009. - 1:04.13
1 file found
1 -===- F:\Красная плесень\№28 - СОЮЗ популярных пародий 2002\Красная Плесень №28 - СОЮЗ популярных пародий 2002.flac
Extracted successfully
Conclusion: this track is CDDA with probability 99%
Tempfile successfully deleted.
Finished at: понедельник, 08. 06. 2009. - 1:09.39 (operation time: 0:05.25)
"СОЮЗ популярных пародий 6006" Кодек: APE
Продолжительность: 00:39:13
Трек лист:
1. Сандалики в ручонках
2. Мои-мои тополя
3. Силиконовая грудь
4. Туда-сюда обратно
5. Запорожцы
6. Пианист
7. Бесарабия
8. Секс шоп
9. Карлсон залетел
10. ГАИ
11. Комары
12. Женился Б..?
13. Моника Бубуинских
14. Косой
15. Старое предание
16. У пивнушки
17. Хомяки

EAC

Exact Audio Copy V0.99 prebeta 4 from 23. January 2008
Отчёт EAC об извлечении, выполненном 9. мая 2009, 20:44
Красная Плесень / Союз Популярных Пародий 6006
Дисковод: Optiarc DVD RW AD-7200S Adapter: 4 ID: 0
Режим чтения : Достоверность
Использование точного потока : Да
Отключение кэша аудио : Да
Использование указателей C2 : Нет
Коррекция смещения при чтении : 48
Способность читать области Lead-in и Lead-out : Нет
Заполнение пропущенных сэмплов тишиной : Да
Удаление блоков с тишиной в начале и конце : Нет
При вычислениях CRC использовались нулевые сэмплы : Да
Интерфейс : Встроенный Win32-интерфейс для Win NT/2000
Выходной формат : Внутренние WAV-операции
Формат сэмплов : 44.100 Гц; 16 бит; стерео
TOC извлечённого CD
Трек | Старт | Длительность | Начальный сектор | Конечный сектор
---------------------------------------------------------------------
1 | 0:00.00 | 3:28.30 | 0 | 15629
2 | 3:28.30 | 3:45.42 | 15630 | 32546
3 | 7:13.72 | 3:27.62 | 32547 | 48133
4 | 10:41.59 | 3:42.39 | 48134 | 64822
5 | 14:24.23 | 0:23.07 | 64823 | 66554
6 | 14:47.30 | 2:55.19 | 66555 | 79698
7 | 17:42.49 | 0:23.46 | 79699 | 81469
8 | 18:06.20 | 3:13.67 | 81470 | 96011
9 | 21:20.12 | 0:15.12 | 96012 | 97148
10 | 21:35.24 | 3:00.24 | 97149 | 110672
11 | 24:35.48 | 0:22.39 | 110673 | 112361
12 | 24:58.12 | 3:20.28 | 112362 | 127389
13 | 28:18.40 | 0:15.25 | 127390 | 128539
14 | 28:33.65 | 2:41.53 | 128540 | 140667
15 | 31:15.43 | 0:45.68 | 140668 | 144110
16 | 32:01.36 | 3:01.45 | 144111 | 157730
17 | 35:03.06 | 4:10.65 | 157731 | 176545
Характеристики диапазона извлечения и сообщения об ошибках
Выбранный диапазон
Имя файла C:\Documents and Settings\Администратор\Рабочий стол\6006\Красная Плесень - Союз Популярных Пародий 6006.wav
Пиковый уровень 99.2 %
Качество диапазона 100.0 %
CRC копии 97850D80
Копирование... OK
Ошибок не произошло
AccurateRip: сводка
Трек 1 нет в базе данных
Трек 2 нет в базе данных
Трек 3 нет в базе данных
Трек 4 нет в базе данных
Трек 5 нет в базе данных
Трек 6 нет в базе данных
Трек 7 нет в базе данных
Трек 8 нет в базе данных
Трек 9 нет в базе данных
Трек 10 нет в базе данных
Трек 11 нет в базе данных
Трек 12 нет в базе данных
Трек 13 нет в базе данных
Трек 14 нет в базе данных
Трек 15 нет в базе данных
Трек 16 нет в базе данных
Трек 17 нет в базе данных
Ни одного трека нет в базе AccurateRip
Конец отчёта

AUDIOCHECKER

AUDIOCHECKER v2.0 beta (build 457) - by Dester - opdester@freemail.hu
~~~~~~~~~~~~~~~~~~~~~~~~~~~~~~~~~~
Started at: понедельник, 08. 06. 2009. - 1:27.09
1 file found
1 -===- F:\Красная плесень\№30 - Союз Популярных Пародий 6006 (APE)\Красная Плесень - Союз Популярных Пародий 6006.ape
Extracted successfully
Conclusion: this track is CDDA with probability 100%
Tempfile successfully deleted.
Finished at: понедельник, 08. 06. 2009. - 1:32.07 (operation time: 0:04.57)
"СОЮЗ популярных пародий 4004" Кодек: FLAC
Продолжительность: 00:34:51
Трек лист:
1. Вступление
2. Фиолетовая корова
3. Немцы и партизаны
4. Засосы
5. Сады
6. Не в моготу
7. Камень в глаз
8. На Дерибасовской
9. МГУ
10. Потрошу...
11. Север
12. Кода

EAC

Exact Audio Copy V0.99 prebeta 4 from 23. January 2008
Отчёт EAC об извлечении, выполненном 8. мая 2009, 19:13
Красная Плесень №32 / СОЮЗ популярных пародий 4004
Дисковод: ASUS DRW-1814BL Adapter: 1 ID: 0
Режим чтения : Достоверность
Использование точного потока : Да
Отключение кэша аудио : Да
Использование указателей C2 : Нет
Коррекция смещения при чтении : 6
Способность читать области Lead-in и Lead-out : Нет
Заполнение пропущенных сэмплов тишиной : Да
Удаление блоков с тишиной в начале и конце : Нет
При вычислениях CRC использовались нулевые сэмплы : Да
Интерфейс : Встроенный Win32-интерфейс для Win NT/2000
Выходной формат : Внутренние WAV-операции
Формат сэмплов : 44.100 Гц; 16 бит; стерео
TOC извлечённого CD
Трек | Старт | Длительность | Начальный сектор | Конечный сектор
---------------------------------------------------------------------
1 | 0:00.00 | 0:32.27 | 0 | 2426
2 | 0:32.27 | 3:09.31 | 2427 | 16632
3 | 3:41.58 | 3:46.07 | 16633 | 33589
4 | 7:27.65 | 4:49.11 | 33590 | 55275
5 | 12:17.01 | 3:49.12 | 55276 | 72462
6 | 16:06.13 | 3:20.23 | 72463 | 87485
7 | 19:26.36 | 0:15.00 | 87486 | 88610
8 | 19:41.36 | 1:51.03 | 88611 | 96938
9 | 21:32.39 | 3:29.42 | 96939 | 112655
10 | 25:02.06 | 4:04.63 | 112656 | 131018
11 | 29:06.69 | 4:39.24 | 131019 | 151967
12 | 33:46.18 | 1:05.27 | 151968 | 156869
Характеристики диапазона извлечения и сообщения об ошибках
Выбранный диапазон
Имя файла E:\Красная Плесень\№32 - СОЮЗ популярных пародий 4004\Красная Плесень №32 - СОЮЗ популярных пародий 4004.wav
Пиковый уровень 98.8 %
Качество диапазона 100.0 %
CRC теста 4843D7F8
CRC копии 4843D7F8
Копирование... OK
Ошибок не произошло
AccurateRip: сводка
Трек 1 нет в базе данных
Трек 2 нет в базе данных
Трек 3 нет в базе данных
Трек 4 нет в базе данных
Трек 5 нет в базе данных
Трек 6 нет в базе данных
Трек 7 нет в базе данных
Трек 8 нет в базе данных
Трек 9 нет в базе данных
Трек 10 нет в базе данных
Трек 11 нет в базе данных
Трек 12 нет в базе данных
Ни одного трека нет в базе AccurateRip
Конец отчёта

AUDIOCHECKER

AUDIOCHECKER v2.0 beta (build 457) - by Dester - opdester@freemail.hu
~~~~~~~~~~~~~~~~~~~~~~~~~~~~~~~~~~
Started at: понедельник, 08. 06. 2009. - 23:41.45
1 file found
1 -===- F:\Красная плесень\№32 - СОЮЗ популярных пародий 4004\Красная Плесень №32 - СОЮЗ популярных пародий 4004.flac
Extracted successfully
Conclusion: this track is CDDA with probability 100%
Tempfile successfully deleted.
Finished at: понедельник, 08. 06. 2009. - 23:45.43 (operation time: 0:03.57)
"СОЮЗ популярных пародий 7007" Кодек: FLAC
Продолжительность:00:49:02
Трек лист:
1. Пьяненькие девочки
2. Тараканы
3. Есть улицы еврейские
4. Поздравляю
5. Мальчишки
6. Эй, девчонки, улю, лю
7. Нас не догнать
8. Алло алло!
9. Самой толстою
10. Яйца
11. Охуе-4
12. Банан
13. Шесть причин
14. Чубчик
15. Пум Пам

EAC

Exact Audio Copy V0.99 prebeta 4 from 23. January 2008
Отчёт EAC об извлечении, выполненном 19. мая 2009, 18:57
Красная Плесень №34 / СОЮЗ популярных пародий 7007
Дисковод: ASUS DRW-1814BL Adapter: 1 ID: 0
Режим чтения : Достоверность
Использование точного потока : Да
Отключение кэша аудио : Да
Использование указателей C2 : Нет
Коррекция смещения при чтении : 6
Способность читать области Lead-in и Lead-out : Нет
Заполнение пропущенных сэмплов тишиной : Да
Удаление блоков с тишиной в начале и конце : Нет
При вычислениях CRC использовались нулевые сэмплы : Да
Интерфейс : Встроенный Win32-интерфейс для Win NT/2000
Выходной формат : Внутренние WAV-операции
Формат сэмплов : 44.100 Гц; 16 бит; стерео
TOC извлечённого CD
Трек | Старт | Длительность | Начальный сектор | Конечный сектор
---------------------------------------------------------------------
1 | 0:00.00 | 3:11.11 | 0 | 14335
2 | 3:11.11 | 3:57.30 | 14336 | 32140
3 | 7:08.41 | 2:33.30 | 32141 | 43645
4 | 9:41.71 | 3:48.71 | 43646 | 60816
5 | 13:30.67 | 2:54.36 | 60817 | 73902
6 | 16:25.28 | 3:30.66 | 73903 | 89718
7 | 19:56.19 | 4:39.33 | 89719 | 110676
8 | 24:35.52 | 3:15.57 | 110677 | 125358
9 | 27:51.34 | 2:30.08 | 125359 | 136616
10 | 30:21.42 | 3:17.34 | 136617 | 151425
11 | 33:39.01 | 3:17.39 | 151426 | 166239
12 | 36:56.40 | 2:40.40 | 166240 | 178279
13 | 39:37.05 | 2:54.64 | 178280 | 191393
14 | 42:31.69 | 4:08.46 | 191394 | 210039
15 | 46:40.40 | 2:22.54 | 210040 | 220743
Характеристики диапазона извлечения и сообщения об ошибках
Выбранный диапазон
Имя файла E:\Красная Плесень\№34 - СОЮЗ популярных пародий 7007\Красная Плесень №34 - СОЮЗ популярных пародий 7007.wav
Пиковый уровень 98.8 %
Качество диапазона 100.0 %
CRC теста D8A3C151
CRC копии D8A3C151
Копирование... OK
Ошибок не произошло
AccurateRip: сводка
Трек 1 нет в базе данных
Трек 2 нет в базе данных
Трек 3 нет в базе данных
Трек 4 нет в базе данных
Трек 5 нет в базе данных
Трек 6 нет в базе данных
Трек 7 нет в базе данных
Трек 8 нет в базе данных
Трек 9 нет в базе данных
Трек 10 нет в базе данных
Трек 11 нет в базе данных
Трек 12 нет в базе данных
Трек 13 нет в базе данных
Трек 14 нет в базе данных
Трек 15 нет в базе данных
Ни одного трека нет в базе AccurateRip
Конец отчёта

AUDIOCHECKER

AUDIOCHECKER v2.0 beta (build 457) - by Dester - opdester@freemail.hu
~~~~~~~~~~~~~~~~~~~~~~~~~~~~~~~~~~
Started at: вторник, 09. 06. 2009. - 0:02.30
1 file found
1 -===- F:\Красная плесень\№34 - Союз Популярных Пародий 7007 (APE)\KRASNAJA PLESENJ - SOJUS populjarnych parodij 7007.ape
Extracted successfully
Conclusion: this track is CDDA with probability 100%
Tempfile successfully deleted.
Finished at: вторник, 09. 06. 2009. - 0:09.08 (operation time: 0:06.38)
"СОЮЗ популярных пародий 8800" Кодек: FLAC
Продолжительность: 00:44:40
Трек лист:
1 Мой ананасный
2 Клей дома есть
3 Я не могу без тебя
4 Бомжик бродяга
5 Тампаксы
6 Резиновая любовь (ВИА Ноги в стороны)
7 Милые девченки
8 Грибы- и Пёрлово
9 Пушки, Колотушкин и Попса
10 Прикол
11 Нам обоим заибись
12 Пляж, Ялта и лифчик
13 Пиво есть - но нельзя съесть
14 Раз два три четыре
15 Ноги в шансон
16 А борща у вас нет? (Дэнс микс)

EAC

Exact Audio Copy V0.99 prebeta 4 from 23. January 2008
Отчёт EAC об извлечении, выполненном 2. мая 2009, 23:33
Красная Плесень №36 / СОЮЗ популярных пародий 8800
Дисковод: ASUS DRW-1814BL Adapter: 1 ID: 0
Режим чтения : Достоверность
Использование точного потока : Да
Отключение кэша аудио : Да
Использование указателей C2 : Нет
Коррекция смещения при чтении : 6
Способность читать области Lead-in и Lead-out : Нет
Заполнение пропущенных сэмплов тишиной : Да
Удаление блоков с тишиной в начале и конце : Нет
При вычислениях CRC использовались нулевые сэмплы : Да
Интерфейс : Встроенный Win32-интерфейс для Win NT/2000
Выходной формат : Внутренние WAV-операции
Формат сэмплов : 44.100 Гц; 16 бит; стерео
TOC извлечённого CD
Трек | Старт | Длительность | Начальный сектор | Конечный сектор
---------------------------------------------------------------------
1 | 0:00.00 | 3:29.19 | 0 | 15693
2 | 3:29.19 | 3:35.72 | 15694 | 31890
3 | 7:05.16 | 2:43.47 | 31891 | 44162
4 | 9:48.63 | 2:43.41 | 44163 | 56428
5 | 12:32.29 | 2:28.73 | 56429 | 67601
6 | 15:01.27 | 3:38.17 | 67602 | 83968
7 | 18:39.44 | 3:19.66 | 83969 | 98959
8 | 21:59.35 | 3:10.16 | 98960 | 113225
9 | 25:09.51 | 2:57.69 | 113226 | 126569
10 | 28:07.45 | 0:13.62 | 126570 | 127606
11 | 28:21.32 | 2:39.24 | 127607 | 139555
12 | 31:00.56 | 2:23.40 | 139556 | 150320
13 | 33:24.21 | 2:24.07 | 150321 | 161127
14 | 35:48.28 | 3:46.05 | 161128 | 178082
15 | 39:34.33 | 1:18.66 | 178083 | 183998
16 | 40:53.24 | 3:47.55 | 183999 | 201078
Характеристики диапазона извлечения и сообщения об ошибках
Выбранный диапазон
Имя файла E:\Красная Плесень\№36 - СОЮЗ популярных пародий 8800\Красная Плесень №36 - СОЮЗ популярных пародий 8800.wav
Пиковый уровень 98.8 %
Качество диапазона 100.0 %
CRC теста 555A288D
CRC копии 555A288D
Копирование... OK
Ошибок не произошло
AccurateRip: сводка
Трек 1 нет в базе данных
Трек 2 нет в базе данных
Трек 3 нет в базе данных
Трек 4 нет в базе данных
Трек 5 нет в базе данных
Трек 6 нет в базе данных
Трек 7 нет в базе данных
Трек 8 нет в базе данных
Трек 9 нет в базе данных
Трек 10 нет в базе данных
Трек 11 нет в базе данных
Трек 12 нет в базе данных
Трек 13 нет в базе данных
Трек 14 нет в базе данных
Трек 15 нет в базе данных
Трек 16 нет в базе данных
Ни одного трека нет в базе AccurateRip
Конец отчёта

AUDIOCHECKER

AUDIOCHECKER v2.0 beta (build 457) - by Dester - opdester@freemail.hu
~~~~~~~~~~~~~~~~~~~~~~~~~~~~~~~~~~
Started at: вторник, 09. 06. 2009. - 0:33.45
1 file found
1 -===- F:\Красная плесень\№36 - СОЮЗ популярных пародий 8800\Красная Плесень №36 - СОЮЗ популярных пародий 8800.flac
Extracted successfully
Conclusion: this track is CDDA with probability 100%
Tempfile successfully deleted.
Finished at: вторник, 09. 06. 2009. - 0:41.04 (operation time: 0:07.18)
"Бульбулятор" Кодек: FLAC
Продолжительность: 00:25:02
Трек лист:
1. Бульбулятор
2. За рулем пызда
3. Апельсиновый понос
4. Рок-н-ролл (ремикс)
5. Гимн панков
6. Баллада
7. Про конго
8. Дребедень
9. Что бы девушки потели
10. Невеста фюррера
11. Смерть фашизму
12. Мне подруга не...

EAC

Exact Audio Copy V0.99 prebeta 4 from 23. January 2008
Отчёт EAC об извлечении, выполненном 25. апреля 2009, 19:00
Красная Плесень / Бульбулятор [MS CD 554/04]
Дисковод: Optiarc DVD RW AD-7170A Adapter: 1 ID: 1
Режим чтения : Достоверность
Использование точного потока : Да
Отключение кэша аудио : Да
Использование указателей C2 : Нет
Коррекция смещения при чтении : 48
Способность читать области Lead-in и Lead-out : Нет
Заполнение пропущенных сэмплов тишиной : Да
Удаление блоков с тишиной в начале и конце : Нет
При вычислениях CRC использовались нулевые сэмплы : Да
Интерфейс : Установленный внешний ASPI-интерфейс
Выходной формат : Внутренние WAV-операции
Формат сэмплов : 44.100 Гц; 16 бит; стерео
TOC извлечённого CD
Трек | Старт | Длительность | Начальный сектор | Конечный сектор
---------------------------------------------------------------------
1 | 0:00.00 | 1:24.41 | 0 | 6340
2 | 1:24.41 | 3:22.60 | 6341 | 21550
3 | 4:47.26 | 2:31.01 | 21551 | 32876
4 | 7:18.27 | 3:28.39 | 32877 | 48515
5 | 10:46.66 | 3:12.40 | 48516 | 62955
6 | 13:59.31 | 3:23.19 | 62956 | 78199
7 | 17:22.50 | 3:42.16 | 78200 | 94865
8 | 21:04.66 | 2:43.38 | 94866 | 107128
9 | 23:48.29 | 1:48.04 | 107129 | 115232
10 | 25:36.33 | 2:46.21 | 115233 | 127703
11 | 28:22.54 | 2:21.40 | 127704 | 138318
12 | 30:44.19 | 1:37.07 | 138319 | 145600
13 | 32:21.26 | 3:10.22 | 145601 | 159872
14 | 35:31.48 | 2:14.19 | 159873 | 169941
15 | 37:45.67 | 2:59.70 | 169942 | 183436
16 | 40:45.62 | 0:22.58 | 183437 | 185144
17 | 41:08.45 | 2:44.03 | 185145 | 197447
18 | 43:52.48 | 0:05.12 | 197448 | 197834
19 | 43:57.60 | 2:55.31 | 197835 | 210990
20 | 46:53.16 | 3:45.22 | 210991 | 227887
21 | 50:38.38 | 2:04.23 | 227888 | 237210
22 | 55:14.61 | 0:23.56 | 248611 | 250391
Характеристики диапазона извлечения и сообщения об ошибках
Выбранный диапазон
Имя файла D:\Russian\FLAC_APE (image+.cue)\Красная плесень\38. Бульбулятор [2004, Master Sound, MS CD 55404] (2004)\Красная Плесень - Бульбулятор (2004).wav
Пиковый уровень 98.8 %
Качество диапазона 100.0 %
CRC копии 0C48EB36
Копирование... OK
Ошибок не произошло
Конец отчёта

AUDIOCHECKER

AUDIOCHECKER v2.0 beta (build 457) - by Dester - opdester@freemail.hu
~~~~~~~~~~~~~~~~~~~~~~~~~~~~~~~~~~
Started at: вторник, 09. 06. 2009. - 0:45.57
1 file found
1 -===- F:\Красная плесень\№38 - Бульбулятор\Красная Плесень - Бульбулятор (2004).flac
Extracted successfully
Conclusion: this track is CDDA with probability 100%
Tempfile successfully deleted.
Finished at: вторник, 09. 06. 2009. - 0:50.32 (operation time: 0:04.34)
"Красная Плесень с симфоническим оркестром" Кодек: FLAC
Продолжительность: 00:47:50
Трек лист:
1. Вступление к первой части марсельбонского баллета
2. Собачка дяди Пети
3. Дню космонавтики посвящается...
4. Мурашки от Наташки
5. По улице ходила
6. Если б я был Султан
7. Как-то утром на рассвете
8. [однако]
9. Конопля на даче
10. Вступление ко второй части марсельбонского баллета
11. У ресторана в Ленинграде
12. Кальян
13. Придурок
14. Группа гОЗОН
15. Доярка и бык
16. Дискотека ефрейтора Сруля
17. Амнезия
18. Мы с пацанами едем на разборки...
19. Мы сидели все в кругу...

EAC

Exact Audio Copy V0.99 prebeta 4 from 23. January 2008
Отчёт EAC об извлечении, выполненном 18. мая 2009, 14:35
Красная Плесень №40 / Красная Плесень с "Симфоническим оркестром"
Дисковод: ASUS DRW-1814BL Adapter: 1 ID: 0
Режим чтения : Достоверность
Использование точного потока : Да
Отключение кэша аудио : Да
Использование указателей C2 : Нет
Коррекция смещения при чтении : 6
Способность читать области Lead-in и Lead-out : Нет
Заполнение пропущенных сэмплов тишиной : Да
Удаление блоков с тишиной в начале и конце : Нет
При вычислениях CRC использовались нулевые сэмплы : Да
Интерфейс : Встроенный Win32-интерфейс для Win NT/2000
Выходной формат : Внутренние WAV-операции
Формат сэмплов : 44.100 Гц; 16 бит; стерео
TOC извлечённого CD
Трек | Старт | Длительность | Начальный сектор | Конечный сектор
---------------------------------------------------------------------
1 | 0:00.00 | 1:53.73 | 0 | 8547
2 | 1:53.73 | 2:00.72 | 8548 | 17619
3 | 3:54.70 | 2:35.32 | 17620 | 29276
4 | 6:30.27 | 2:04.28 | 29277 | 38604
5 | 8:34.55 | 2:39.05 | 38605 | 50534
6 | 11:13.60 | 2:37.06 | 50535 | 62315
7 | 13:50.66 | 2:25.18 | 62316 | 73208
8 | 16:16.09 | 3:06.24 | 73209 | 87182
9 | 19:22.33 | 2:20.24 | 87183 | 97706
10 | 21:42.57 | 2:21.24 | 97707 | 108305
11 | 24:04.06 | 3:09.44 | 108306 | 122524
12 | 27:13.50 | 2:39.26 | 122525 | 134475
13 | 29:53.01 | 1:59.17 | 134476 | 143417
14 | 31:52.18 | 1:26.12 | 143418 | 149879
15 | 33:18.30 | 1:57.57 | 149880 | 158711
16 | 35:16.12 | 2:15.40 | 158712 | 168876
17 | 37:31.52 | 2:19.39 | 168877 | 179340
18 | 39:51.16 | 1:56.48 | 179341 | 188088
19 | 41:47.64 | 3:09.23 | 188089 | 202286
20 | 47:29.12 | 0:21.49 | 213687 | 215310
Характеристики диапазона извлечения и сообщения об ошибках
Выбранный диапазон
Имя файла E:\Красная Плесень\№40 - Красная Плесень с Симфоническим оркестром\Красная Плесень №40 - С симфоническим оркестром.wav
Пиковый уровень 98.8 %
Качество диапазона 100.0 %
CRC теста 28B9282A
CRC копии 28B9282A
Копирование... OK
Ошибок не произошло
AccurateRip: сводка
Трек 1 нет в базе данных
Трек 2 нет в базе данных
Трек 3 нет в базе данных
Трек 4 нет в базе данных
Трек 5 нет в базе данных
Трек 6 нет в базе данных
Трек 7 нет в базе данных
Трек 8 нет в базе данных
Трек 9 нет в базе данных
Трек 10 нет в базе данных
Трек 11 нет в базе данных
Трек 12 нет в базе данных
Трек 13 нет в базе данных
Трек 14 нет в базе данных
Трек 15 нет в базе данных
Трек 16 нет в базе данных
Трек 17 нет в базе данных
Трек 18 нет в базе данных
Трек 19 нет в базе данных
Ни одного трека нет в базе AccurateRip
Конец отчёта

AUDIOCHECKER

AUDIOCHECKER v2.0 beta (build 457) - by Dester - opdester@freemail.hu
~~~~~~~~~~~~~~~~~~~~~~~~~~~~~~~~~~
Started at: вторник, 09. 06. 2009. - 0:58.08
1 file found
1 -===- F:\Красная плесень\№40 - Красная Плесень с Симфоническим оркестром\Красная Плесень №40 - С симфоническим оркестром.flac
Extracted successfully
Conclusion: this track is CDDA with probability 100%
Tempfile successfully deleted.
Finished at: вторник, 09. 06. 2009. - 1:05.26 (operation time: 0:07.17)
"СОЮЗ популярных пародий 1.000.000" Кодек: FLAC
Продолжительность: 00:44:23
Трек лист:
1. Академик Бибизинский "Пьяный на столе"
2. гр. Корневая система "Ты узнаешь Ыё"
3. В. Смердючка "Пук-пук-пук"
4. Чебурек
5. Серый "Черный умер"
6. Фруктоза "Град идет"
7. К. Артакайдэ "Губки срантиком"
8. Какадышева "Зажималась я"
9. Катя Дрель "Сюси дрюси"
10. В мире зверьков
11. Плачет девушка с автоматом
12. Опера "Я голоден"
13. Румштайн "Берлин-Москоу"
14. "Попала в .... пчела"
15. Ноги вниз "Нажрались"

EAC

Exact Audio Copy V0.99 prebeta 5 from 4. May 2009
Отчёт EAC об извлечении, выполненном 17. мая 2009, 17:48
Красная Плесень / Союз Популярных Пародий 1.000.000
Дисковод: _NEC DVD_RW ND-3520A Adapter: 1 ID: 2
Режим чтения : Достоверность
Использование точного потока : Да
Отключение кэша аудио : Да
Использование указателей C2 : Нет
Комбинированное смещение чтения/записи : 48
Способность читать области Lead-in и Lead-out : Нет
Заполнение пропущенных сэмплов тишиной : Да
Удаление блоков с тишиной в начале и конце : Нет
При вычислениях CRC использовались нулевые сэмплы : Да
Интерфейс : Установленный внешний ASPI-интерфейс
Выходной формат : Внутренние WAV-операции
Формат сэмплов : 44.100 Гц; 16 бит; стерео
TOC извлечённого CD
Трек | Старт | Длительность | Начальный сектор | Конечный сектор
---------------------------------------------------------------------
1 | 0:00.00 | 0:40.61 | 0 | 3060
2 | 0:40.61 | 3:57.69 | 3061 | 20904
3 | 4:38.55 | 4:38.52 | 20905 | 41806
4 | 9:17.32 | 3:12.39 | 41807 | 56245
5 | 12:29.71 | 2:43.45 | 56246 | 68515
6 | 15:13.41 | 2:52.14 | 68516 | 81429
7 | 18:05.55 | 3:04.55 | 81430 | 95284
8 | 21:10.35 | 2:36.14 | 95285 | 106998
9 | 23:46.49 | 3:00.55 | 106999 | 120553
10 | 26:47.29 | 1:02.03 | 120554 | 125206
11 | 27:49.32 | 3:09.34 | 125207 | 139415
12 | 30:58.66 | 2:21.54 | 139416 | 150044
13 | 33:20.45 | 2:41.48 | 150045 | 162167
14 | 36:02.18 | 1:55.60 | 162168 | 170852
15 | 37:58.03 | 2:44.23 | 170853 | 183175
16 | 40:42.26 | 3:41.69 | 183176 | 199819
Характеристики диапазона извлечения и сообщения об ошибках
Выбранный диапазон
Имя файла C:\Красная Плесень - Союз Популярных Пародий 1.000.000\Красная Плесень - Союз Популярных Пародий 1.000.000.wav
Пиковый уровень 100.0 %
Качество диапазона 99.9 %
CRC копии CA56E781
Копирование... OK
Ошибок не произошло
Конец отчёта

AUDIOCHECKER

AUDIOCHECKER v2.0 beta (build 457) - by Dester - opdester@freemail.hu
~~~~~~~~~~~~~~~~~~~~~~~~~~~~~~~~~~
Started at: вторник, 09. 06. 2009. - 1:17.06
1 file found
1 -===- F:\Красная плесень\№42 - Союз Популярных Пародий 1.000.000\Красная Плесень - Союз Популярных Пародий 1.000.000.flac
Extracted successfully
Conclusion: this track is CDDA with probability 100%
Tempfile successfully deleted.
Finished at: вторник, 09. 06. 2009. - 1:21.22 (operation time: 0:04.15)
"Трилогия русского панк-рока" Кодек: APE
Продолжительность: 00:39:47
Трек лист:
1. Вступление на ковано-чугунной гитаре
2. Казаки
3. За околицу ты гля,там созрела...
4. Самогон
5. Мальчиш-бухиш
6. Тысь-Анадысь
7. Русиш партизанен
8. На печи
9. Саунд трек к сериалу •Юность в портянках•
10. Мясокомбинат
11. Запорожец
12. Вот и дембель - зашибизь
13. Суп для тёщи
14. Четвёртая струна
15. Памяти всех безвременно ушедших посвящается
16. В полнолунную ночь
17. Стая бешенных коров
18. Кода

EAC

Exact Audio Copy V0.99 prebeta 1 from 25. May 2007
Отчёт EAC об извлечении, выполненном 9. июня 2009, 0:01
- / -
Дисковод: GF4148K LVM170H Adapter: 3 ID: 0
Режим чтения : Достоверность
Использование точного потока : Да
Отключение кэша аудио : Да
Использование указателей C2 : Да
Коррекция смещения при чтении : 0
Способность читать области Lead-in и Lead-out : Нет
Заполнение пропущенных сэмплов тишиной : Да
Удаление блоков с тишиной в начале и конце : Нет
Интерфейс : Установленный внешний ASPI-интерфейс
Выходной формат : Monkey's Audio Lossless Encoder v3.99 DLL
Формат сэмплов : High Lossless Compression
Смещение при сжатии : 0
TOC извлечённого CD
Трек | Старт | Длительность | Начальный сектор | Конечный сектор
---------------------------------------------------------------------
1 | 0:00.00 | 1:31.57 | 0 | 6881
2 | 1:31.57 | 2:34.74 | 6882 | 18505
3 | 4:06.56 | 3:08.27 | 18506 | 32632
4 | 7:15.08 | 2:41.17 | 32633 | 44724
5 | 9:56.25 | 2:26.11 | 44725 | 55685
6 | 12:22.36 | 3:15.36 | 55686 | 70346
7 | 15:37.72 | 0:57.67 | 70347 | 74688
8 | 16:35.64 | 2:28.11 | 74689 | 85799
9 | 19:04.00 | 1:27.67 | 85800 | 92391
10 | 20:31.67 | 2:49.74 | 92392 | 105140
11 | 23:21.66 | 2:06.61 | 105141 | 114651
12 | 25:28.52 | 1:53.16 | 114652 | 123142
13 | 27:21.68 | 2:34.16 | 123143 | 134708
14 | 29:56.09 | 2:22.10 | 134709 | 145368
15 | 32:18.19 | 2:45.45 | 145369 | 157788
16 | 35:03.64 | 2:16.07 | 157789 | 167995
17 | 37:19.71 | 2:01.59 | 167996 | 177129
18 | 39:21.55 | 0:25.57 | 177130 | 179061
Характеристики диапазона извлечения и сообщения об ошибках
Выбранный диапазон
Имя файла F:\Красная плесень\№44 - Трилогия русского панк-рока\№44 - Трилогия русского панк-рока.ape
Пиковый уровень 100.0 %
Качество диапазона 100.0 %
CRC копии D18E12BC
Копирование... OK
Ошибок не произошло
Конец отчёта

AUDIOCHECKER

AUDIOCHECKER v2.0 beta (build 457) - by Dester - opdester@freemail.hu
~~~~~~~~~~~~~~~~~~~~~~~~~~~~~~~~~~
Started at: вторник, 09. 06. 2009. - 1:27.43
1 file found
1 -===- F:\Красная плесень\№44 - Трилогия русского панк-рока\№44 - Трилогия русского панк-рока.ape
Extracted successfully
Conclusion: this track is CDDA with probability 100%
Tempfile successfully deleted.
Finished at: вторник, 09. 06. 2009. - 1:32.08 (operation time: 0:04.25)
"46-й альбом " Кодек: FLAC
Продолжительность: 00:46:39
Трек лист:
1. Красная плесень
2. На всё насрать
3. Мы в сандалях
4. Помои для тёщи
5. Лифчики трусы
6. Рюмсштайн - Керосин
7. Это вкусней, чем мороженое
8. У дурдома моего
9. Fuckтор-3
10. На деревне весело
11. Трактор-2- знакомство через чат
12. Вазелин
13. Дрочун
14. Ёпсель-мопсель
15. Вурдолачная ночь
16. Тракторист я хоть куды

EAC

Exact Audio Copy V0.99 prebeta 4 from 23. January 2008
Отчёт EAC об извлечении, выполненном 2. мая 2009, 19:41
Красная Плесень №46 / 46-й альбом
Дисковод: ASUS DRW-1814BL Adapter: 1 ID: 0
Режим чтения : Достоверность
Использование точного потока : Да
Отключение кэша аудио : Да
Использование указателей C2 : Нет
Коррекция смещения при чтении : 6
Способность читать области Lead-in и Lead-out : Нет
Заполнение пропущенных сэмплов тишиной : Да
Удаление блоков с тишиной в начале и конце : Нет
При вычислениях CRC использовались нулевые сэмплы : Да
Интерфейс : Встроенный Win32-интерфейс для Win NT/2000
Выходной формат : Внутренние WAV-операции
Формат сэмплов : 44.100 Гц; 16 бит; стерео
TOC извлечённого CD
Трек | Старт | Длительность | Начальный сектор | Конечный сектор
---------------------------------------------------------------------
1 | 0:00.00 | 2:22.22 | 0 | 10671
2 | 2:22.22 | 2:52.05 | 10672 | 23576
3 | 5:14.27 | 3:26.39 | 23577 | 39065
4 | 8:40.66 | 2:56.46 | 39066 | 52311
5 | 11:37.37 | 2:28.12 | 52312 | 63423
6 | 14:05.49 | 1:48.57 | 63424 | 71580
7 | 15:54.31 | 2:41.45 | 71581 | 83700
8 | 18:36.01 | 2:56.36 | 83701 | 96936
9 | 21:32.37 | 2:14.68 | 96937 | 107054
10 | 23:47.30 | 2:18.03 | 107055 | 117407
11 | 26:05.33 | 3:23.58 | 117408 | 132690
12 | 29:29.16 | 2:37.02 | 132691 | 144467
13 | 32:06.18 | 2:14.54 | 144468 | 154571
14 | 34:20.72 | 2:58.31 | 154572 | 167952
15 | 37:19.28 | 4:13.04 | 167953 | 186931
16 | 41:32.32 | 2:15.36 | 186932 | 197092
17 | 46:19.68 | 0:29.40 | 208493 | 210707
Характеристики диапазона извлечения и сообщения об ошибках
Выбранный диапазон
Имя файла E:\Красная Плесень\№46 - 46-й альбом\Красная Плесень №46 - 46-й альбом.wav
Пиковый уровень 98.8 %
Качество диапазона 100.0 %
CRC теста CC84F8AC
CRC копии CC84F8AC
Копирование... OK
Ошибок не произошло
AccurateRip: сводка
Трек 1 нет в базе данных
Трек 2 нет в базе данных
Трек 3 нет в базе данных
Трек 4 нет в базе данных
Трек 5 нет в базе данных
Трек 6 нет в базе данных
Трек 7 нет в базе данных
Трек 8 нет в базе данных
Трек 9 нет в базе данных
Трек 10 нет в базе данных
Трек 11 нет в базе данных
Трек 12 нет в базе данных
Трек 13 нет в базе данных
Трек 14 нет в базе данных
Трек 15 нет в базе данных
Трек 16 нет в базе данных
Ни одного трека нет в базе AccurateRip
Конец отчёта

AUDIOCHECKER

AUDIOCHECKER v2.0 beta (build 457) - by Dester - opdester@freemail.hu
~~~~~~~~~~~~~~~~~~~~~~~~~~~~~~~~~~
Started at: вторник, 09. 06. 2009. - 1:37.38
1 file found
1 -===- F:\Красная плесень\№46 - 46-й альбом\Красная Плесень №46 - 46-й альбом.flac
Extracted successfully
Conclusion: this track is CDDA with probability 100%
Tempfile successfully deleted.
Finished at: вторник, 09. 06. 2009. - 1:41.52 (operation time: 0:04.14)
"СОЮЗ популярных пародий "Жареная 30-ка" Кодек: FLAC
Продолжительность: 00:44:32
Трек лист:
1. гр. Свистящие – «Агент 008»
2. Би-8 – «Десантники»
3. Любовь- гемороя
4. Ламбороджино
5. Серый – «Миллион тубриков»
6. Пьянка – «Были дэнсы»
7. D.J.Мамонт–«Финская румынка» (mp3)
8. Бандерас и Махновес – «КАЛамбия пикчерз недогоняет»
9. Смешливые девченки
10. Дискотека Бавария – «Оба-Оба»
11. Братья Пилигрим – «Несвежая курица»
12. Сосна – «Бабушка доцентка»
13. ЛигаДравйвз – «Будущие папы»
14. Шура Конкретный - Поппури
15. Мистер Конкредо и конкретно Кокадышева – «Тужимся»
16. Дискотека Бавария – «Малина»
17. Призыв в армию
18. Морис Борисеев – «Закурить не найдется?»

EAC

Exact Audio Copy V0.99 prebeta 4 from 23. January 2008
Отчёт EAC об извлечении, выполненном 16. мая 2009, 0:42
Красная Плесень №47 / СОЮЗ популярных пародий "ЖАРЕНАЯ ТРИДЦАТКА"
Дисковод: ASUS DRW-1814BL Adapter: 1 ID: 0
Режим чтения : Достоверность
Использование точного потока : Да
Отключение кэша аудио : Да
Использование указателей C2 : Нет
Коррекция смещения при чтении : 6
Способность читать области Lead-in и Lead-out : Нет
Заполнение пропущенных сэмплов тишиной : Да
Удаление блоков с тишиной в начале и конце : Нет
При вычислениях CRC использовались нулевые сэмплы : Да
Интерфейс : Встроенный Win32-интерфейс для Win NT/2000
Выходной формат : Внутренние WAV-операции
Формат сэмплов : 44.100 Гц; 16 бит; стерео
TOC извлечённого CD
Трек | Старт | Длительность | Начальный сектор | Конечный сектор
---------------------------------------------------------------------
1 | 0:00.00 | 2:17.74 | 0 | 10348
2 | 2:17.74 | 3:24.41 | 10349 | 25689
3 | 5:42.40 | 2:30.27 | 25690 | 36966
4 | 8:12.67 | 3:47.53 | 36967 | 54044
5 | 12:00.45 | 2:44.72 | 54045 | 66416
6 | 14:45.42 | 1:53.30 | 66417 | 74921
7 | 16:38.72 | 1:44.56 | 74922 | 82777
8 | 18:23.53 | 2:46.67 | 82778 | 95294
9 | 21:10.45 | 0:16.31 | 95295 | 96525
10 | 21:27.01 | 2:47.09 | 96526 | 109059
11 | 24:14.10 | 2:11.66 | 109060 | 118950
12 | 26:26.01 | 2:13.41 | 118951 | 128966
13 | 28:39.42 | 1:41.50 | 128967 | 136591
14 | 30:21.17 | 2:00.25 | 136592 | 145616
15 | 32:21.42 | 3:44.10 | 145617 | 162426
16 | 36:05.52 | 1:49.38 | 162427 | 170639
17 | 37:55.15 | 2:56.58 | 170640 | 183897
18 | 40:51.73 | 0:29.02 | 183898 | 186074
19 | 43:53.00 | 0:39.62 | 197475 | 200461
Характеристики диапазона извлечения и сообщения об ошибках
Выбранный диапазон
Имя файла E:\Красная Плесень\№47 - СОЮЗ популярных пародий ЖАРЕНАЯ ТРИДЦАТКА\Красная Плесень №47 - СОЮЗ популярных пародий ЖАРЕНАЯ ТРИДЦАТКА.wav
Пиковый уровень 98.8 %
Качество диапазона 100.0 %
CRC теста 43603BF4
CRC копии 43603BF4
Копирование... OK
Ошибок не произошло
AccurateRip: сводка
Трек 1 нет в базе данных
Трек 2 нет в базе данных
Трек 3 нет в базе данных
Трек 4 нет в базе данных
Трек 5 нет в базе данных
Трек 6 нет в базе данных
Трек 7 нет в базе данных
Трек 8 нет в базе данных
Трек 9 нет в базе данных
Трек 10 нет в базе данных
Трек 11 нет в базе данных
Трек 12 нет в базе данных
Трек 13 нет в базе данных
Трек 14 нет в базе данных
Трек 15 нет в базе данных
Трек 16 нет в базе данных
Трек 17 нет в базе данных
Трек 18 нет в базе данных
Ни одного трека нет в базе AccurateRip
Конец отчёта

AUDIOCHECKER

AUDIOCHECKER v2.0 beta (build 457) - by Dester - opdester@freemail.hu
~~~~~~~~~~~~~~~~~~~~~~~~~~~~~~~~~~
Started at: вторник, 09. 06. 2009. - 1:42.03
1 file found
1 -===- F:\Красная плесень\№47 - СОЮЗ популярных пародий ЖАРЕНАЯ ТРИДЦАТКА\Красная Плесень №47 - СОЮЗ популярных пародий ЖАРЕНАЯ ТРИДЦАТКА.flac
Extracted successfully
Conclusion: this track is CDDA with probability 100%
Tempfile successfully deleted.
Finished at: вторник, 09. 06. 2009. - 1:46.03 (operation time: 0:03.59)
"Баллады 2
часть"
Кодек: FLAC
Продолжительность: 00:48:25
Трек лист:
1. 20 лет
2.Панк баллада
3.Ведь это
4.Афганистан
5.Памяти тех кого не вернуть
6.Кубовая машина
7.Последний шаг
8.Вурдалачная ночь
9.Не улетай
10.В полнолуную ночь
11.Однажды
12.Я бы хотел
13.Шабаш

EAC

Exact Audio Copy V0.99 prebeta 4 from 23. January 2008
Отчёт EAC об извлечении, выполненном 16. мая 2009, 0:10
Красная Плесень №49 / Баллады 2 часть
Дисковод: ASUS DRW-1814BL Adapter: 1 ID: 0
Режим чтения : Достоверность
Использование точного потока : Да
Отключение кэша аудио : Да
Использование указателей C2 : Нет
Коррекция смещения при чтении : 6
Способность читать области Lead-in и Lead-out : Нет
Заполнение пропущенных сэмплов тишиной : Да
Удаление блоков с тишиной в начале и конце : Нет
При вычислениях CRC использовались нулевые сэмплы : Да
Интерфейс : Встроенный Win32-интерфейс для Win NT/2000
Выходной формат : Внутренние WAV-операции
Формат сэмплов : 44.100 Гц; 16 бит; стерео
TOC извлечённого CD
Трек | Старт | Длительность | Начальный сектор | Конечный сектор
---------------------------------------------------------------------
1 | 0:00.00 | 3:00.18 | 0 | 13517
2 | 3:00.18 | 3:03.32 | 13518 | 27274
3 | 6:03.50 | 4:04.40 | 27275 | 45614
4 | 10:08.15 | 4:33.58 | 45615 | 66147
5 | 14:41.73 | 2:43.45 | 66148 | 78417
6 | 17:25.43 | 4:11.03 | 78418 | 97245
7 | 21:36.46 | 3:47.39 | 97246 | 114309
8 | 25:24.10 | 4:11.01 | 114310 | 133135
9 | 29:35.11 | 5:10.38 | 133136 | 156423
10 | 34:45.49 | 2:14.07 | 156424 | 166480
11 | 36:59.56 | 4:08.13 | 166481 | 185093
12 | 41:07.69 | 3:50.45 | 185094 | 202388
13 | 44:58.39 | 3:27.59 | 202389 | 217972
Характеристики диапазона извлечения и сообщения об ошибках
Выбранный диапазон
Имя файла E:\Красная Плесень\№49 - Баллады 2 часть\Красная Плесень №49 - Баллады 2 часть.wav
Пиковый уровень 100.0 %
Качество диапазона 100.0 %
CRC теста F83F7A8F
CRC копии F83F7A8F
Копирование... OK
Ошибок не произошло
AccurateRip: сводка
Трек 1 нет в базе данных
Трек 2 нет в базе данных
Трек 3 нет в базе данных
Трек 4 нет в базе данных
Трек 5 нет в базе данных
Трек 6 нет в базе данных
Трек 7 нет в базе данных
Трек 8 нет в базе данных
Трек 9 нет в базе данных
Трек 10 нет в базе данных
Трек 11 нет в базе данных
Трек 12 нет в базе данных
Трек 13 нет в базе данных
Ни одного трека нет в базе AccurateRip
Конец отчёта

AUDIOCHECKER

AUDIOCHECKER v2.0 beta (build 457) - by Dester - opdester@freemail.hu
~~~~~~~~~~~~~~~~~~~~~~~~~~~~~~~~~~
Started at: вторник, 09. 06. 2009. - 1:59.19
1 file found
1 -===- F:\Красная плесень\№49 - Баллады 2 часть\Красная Плесень №49 - Баллады 2 часть.flac
Extracted successfully
Conclusion: this track is CDDA with probability 99%
Tempfile successfully deleted.
Finished at: вторник, 09. 06. 2009. - 2:04.23 (operation time: 0:05.03)
"Керосин" Кодек: FLAC
Продолжительность: 00:53:17
Трек лист:
01. Вступление
02. ГАЗы
03. Деревенский рай
04. Песня о спорте
05. Горели поля
06. Индеец и турист
07. Фоер
08. Археологи
09. Рецепт вареникоФ
10. ГАИшник
11. Как то с города
12. Кокоин
13. Партизан
14. сборная команда 4-го Дурдома
15. Мальчиш375
16. Буча мамба
17. Медкомиссия
18. Концовка
19. Фролов-ДМБ
20. Пираты (бонус)

EAC

Exact Audio Copy V0.99 prebeta 4 from 23. January 2008
Отчёт EAC об извлечении, выполненном 2. мая 2009, 13:46
Красная Плесень №51 / Керосин
Дисковод: ASUS DRW-1814BL Adapter: 1 ID: 0
Режим чтения : Достоверность
Использование точного потока : Да
Отключение кэша аудио : Да
Использование указателей C2 : Нет
Коррекция смещения при чтении : 6
Способность читать области Lead-in и Lead-out : Нет
Заполнение пропущенных сэмплов тишиной : Да
Удаление блоков с тишиной в начале и конце : Нет
При вычислениях CRC использовались нулевые сэмплы : Да
Интерфейс : Встроенный Win32-интерфейс для Win NT/2000
Выходной формат : Внутренние WAV-операции
Формат сэмплов : 44.100 Гц; 16 бит; стерео
TOC извлечённого CD
Трек | Старт | Длительность | Начальный сектор | Конечный сектор
---------------------------------------------------------------------
1 | 0:00.00 | 1:47.50 | 0 | 8074
2 | 1:47.50 | 2:31.48 | 8075 | 19447
3 | 4:19.23 | 2:44.40 | 19448 | 31787
4 | 7:03.63 | 2:00.18 | 31788 | 40805
5 | 9:04.06 | 1:38.64 | 40806 | 48219
6 | 10:42.70 | 2:05.58 | 48220 | 57652
7 | 12:48.53 | 1:18.45 | 57653 | 63547
8 | 14:07.23 | 2:44.65 | 63548 | 75912
9 | 16:52.13 | 2:47.08 | 75913 | 88445
10 | 19:39.21 | 2:53.44 | 88446 | 101464
11 | 22:32.65 | 2:54.66 | 101465 | 114580
12 | 25:27.56 | 1:31.47 | 114581 | 121452
13 | 26:59.28 | 3:25.14 | 121453 | 136841
14 | 30:24.42 | 2:22.02 | 136842 | 147493
15 | 32:46.44 | 2:31.60 | 147494 | 158878
16 | 35:18.29 | 2:22.71 | 158879 | 169599
17 | 37:41.25 | 3:13.43 | 169600 | 184117
18 | 40:54.68 | 1:37.46 | 184118 | 191438
19 | 42:32.39 | 5:55.28 | 191439 | 218091
20 | 48:27.67 | 4:50.29 | 218092 | 239870
Характеристики диапазона извлечения и сообщения об ошибках
Выбранный диапазон
Имя файла E:\Красная Плесень\№51 - Керосин\Красная Плесень №51 - Керосин.wav
Пиковый уровень 98.8 %
Качество диапазона 100.0 %
CRC теста FC58F22B
CRC копии FC58F22B
Копирование... OK
Ошибок не произошло
AccurateRip: сводка
Трек 1 нет в базе данных
Трек 2 нет в базе данных
Трек 3 нет в базе данных
Трек 4 нет в базе данных
Трек 5 нет в базе данных
Трек 6 нет в базе данных
Трек 7 нет в базе данных
Трек 8 нет в базе данных
Трек 9 нет в базе данных
Трек 10 нет в базе данных
Трек 11 нет в базе данных
Трек 12 нет в базе данных
Трек 13 нет в базе данных
Трек 14 нет в базе данных
Трек 15 нет в базе данных
Трек 16 нет в базе данных
Трек 17 нет в базе данных
Трек 18 нет в базе данных
Трек 19 нет в базе данных
Трек 20 нет в базе данных
Ни одного трека нет в базе AccurateRip
Конец отчёта

AUDIOCHECKER

AUDIOCHECKER v2.0 beta (build 457) - by Dester - opdester@freemail.hu
~~~~~~~~~~~~~~~~~~~~~~~~~~~~~~~~~~
Started at: вторник, 09. 06. 2009. - 7:49.27
1 file found
1 -===- F:\Красная плесень\№51 - Керосин\Красная Плесень №51 - Керосин.flac
Extracted successfully
Conclusion: this track is CDDA with probability 100%
Tempfile successfully deleted.
Finished at: вторник, 09. 06. 2009. - 7:55.21 (operation time: 0:05.54)

[Цитировать]



Показать сообщения:    

Текущее время: 09-Дек 06:57

Часовой пояс: UTC + 3


Вы не можете начинать темы
Вы не можете отвечать на сообщения
Вы не можете редактировать свои сообщения
Вы не можете удалять свои сообщения
Вы не можете голосовать в опросах
Вы не можете прикреплять файлы к сообщениям
Вы не можете скачивать файлы

!ВНИМАНИЕ!
Сайт не предоставляет электронные версии произведений, а занимается лишь коллекционированием и каталогизацией ссылок, присылаемых и публикуемых на форуме нашими читателями. Если вы являетесь правообладателем какого-либо представленного материала и не желаете, чтобы ссылка на него находилась в нашем каталоге, свяжитесь с нами, и мы незамедлительно удалим ее. Файлы для обмена на трекере предоставлены пользователями сайта, и администрация не несет ответственности за их содержание. Просьба не заливать файлы, защищенные авторскими правами, а также файлы нелегального содержания!