[ Сегодня идет свободное скачивание без начисления Download ]


Статистика раздачи
Нет
 
   
 
Top  
 
 
-Шов / Stitch (2014) WEB-DL [720p]- Год выпуска: 2014
Производство: США | Thunderbolt Entertainment, Wolf Pack Film Works
Жанр: Триллер
Перевод: Двуголосый закадровый, профессиональный, оригинал (английский)
Озвучка / Автор перевода: НТВ+
Субтитры: Вшитые отключаемые
Язык субтитров: английские
Дата мировой премьеры: 14 февраля 2014
Режиссер: Аджай
Продюсер: Брюс Диксон, Трэвис Хафф, Аджай
Актеры: Эдвард Ферлонг, Шона Уолрод, Дайан Салинджер, Лоуренс Мэйсон, Ширли Бренер, Дуглас Тейт, Тиффани Мартин
Описание фильма:
История о скорбящих родителях Марсдене и Серафине, которые пытаются пережить смерть своей маленькой дочери. На пике отчаяния они обращаются к своим друзьям за советом. Их друзья, действуя из лучших побуждений, вывозят их далеко в пустыню, чтобы там они, пройдя некий ритуал, смогли избавиться от своих переживаний. Но все пошло наперекосяк…
Продолжительность: 01:34:50
Качество видео: WEB-DL [720p]
Видео кодек: MPEG-4 AVC/H.264
Аудио кодек: AC3
Видео: 1280x720 (16:9), 23.976 fps, ~4128 kbps, 0.187 bit/ pixel
Аудио: №1 48 kHz, AC3, 2.0 ch, ~192 kbps | Двуголосый закадровый
Аудио: №2 48 kHz, AC3, 5.1 ch, ~384 kbps | Оригинал

MediaInfo

General
Unique ID                      : 236277399073972152740323134425406937540 (0xB1C15F2EAB0C758EBC9EEA21812499C4)
Complete name                  : D:\фильмы\Shov.2014.WEB-DL.720p.mkv
Format                         : Matroska
Format version                 : Version 4 / Version 2
File size                      : 3.18 GiB
Duration                       : 1h 34mn
Overall bit rate               : 4 800 Kbps
Encoded date                   : UTC 2014-02-11 20:54:30
Writing application            : mkvmerge v6.1.0 ('Old Devil') built on Mar  4 2013 09:10:42
Writing library                : libebml v1.3.0 + libmatroska v1.4.0
Video
ID                             : 1
Format                         : AVC
Format/Info                    : Advanced Video Codec
Format profile                 : [url=mailto:[email protected]][email protected][/url]
Format settings, CABAC         : No
Format settings, ReFrames      : 2 frames
Codec ID                       : V_MPEG4/ISO/AVC
Duration                       : 1h 34mn
Bit rate                       : 4 128 Kbps
Width                          : 1 280 pixels
Height                         : 720 pixels
Display aspect ratio           : 16:9
Frame rate mode                : Constant
Frame rate                     : 23.976 fps
Color space                    : YUV
Chroma subsampling             : 4:2:0
Bit depth                      : 8 bits
Scan type                      : Progressive
Bits/(Pixel*Frame)             : 0.187
Stream size                    : 2.73 GiB (86%)
Language                       : English
Default                        : Yes
Forced                         : No
Color primaries                : BT.709
Transfer characteristics       : BT.709
Matrix coefficients            : BT.709
Audio #1
ID                             : 2
Format                         : AC-3
Format/Info                    : Audio Coding 3
Mode extension                 : CM (complete main)
Format settings, Endianness    : Big
Codec ID                       : A_AC3
Duration                       : 1h 34mn
Bit rate mode                  : Constant
Bit rate                       : 192 Kbps
Channel(s)                     : 2 channels
Channel positions              : Front: L R
Sampling rate                  : 48.0 KHz
Bit depth                      : 16 bits
Compression mode               : Lossy
Stream size                    : 130 MiB (4%)
Language                       : Russian
Default                        : Yes
Forced                         : No
Audio #2
ID                             : 3
Format                         : AC-3
Format/Info                    : Audio Coding 3
Mode extension                 : CM (complete main)
Format settings, Endianness    : Big
Codec ID                       : A_AC3
Duration                       : 1h 34mn
Bit rate mode                  : Constant
Bit rate                       : 384 Kbps
Channel(s)                     : 6 channels
Channel positions              : Front: L C R, Side: L R, LFE
Sampling rate                  : 48.0 KHz
Bit depth                      : 16 bits
Compression mode               : Lossy
Stream size                    : 260 MiB (8%)
Language                       : English
Default                        : No
Forced                         : No
Text
ID                             : 4
Format                         : UTF-8
Codec ID                       : S_TEXT/UTF8
Codec ID/Info                  : UTF-8 Plain Text
Language                       : English
Default                        : No
Forced                         : No
Menu
00:00:00.000                   : en:The First Stitch Is the Deepest
00:00:43.000                   : en:A Stitchy Lady
00:05:30.000                   : en:Getting Stitch-Uated
00:11:23.000                   : en:I Feel a Stitch Coming On
00:13:14.000                   : en:Sew Upset
00:15:19.000                   : en:Prepare to Stitch
00:17:16.000                   : en:Stitch-Ual Healing
00:23:52.000                   : en:What Is This Stitchcraft?
00:28:24.000                   : en:Baby Face
00:31:30.000                   : en:A Stitch to the Face
00:35:40.000                   : en:Stranded
00:37:00.000                   : en:Field Trip
00:41:21.000                   : en:Home Stitch Home
00:46:44.000                   : en:Stitch, You Betrayed Me!
00:55:27.000                   : en:Stitch Dreams
01:01:45.000                   : en:Getting the Stitch out of Here
01:04:43.000                   : en:Colline Gets Stitchy
01:09:37.000                   : en:Suture for the Soul
01:13:45.000                   : en:Stitch That Mouth Shut
01:16:30.000                   : en:The Stitches Fall Apart
01:22:16.000                   : en:What Happens to a Stitch Deferred?
01:27:06.000                   : en:Stuck in a Stitch
01:31:58.000                   : en:The Final Stitch
Скриншоты:
[th]http://img.torrentsclub.org/di/YDAY/Shov.png[/th] [th]http://img.torrentsclub.org/di/3GHZ/Shov.png[/th] [th]http://img.torrentsclub.org/di/5B6Z/Shov.png[/th]
Время раздачи: 10:00 - 24:00

[Цитировать]



Показать сообщения:    

Текущее время: 04-Дек 23:21

Часовой пояс: UTC + 3


Вы не можете начинать темы
Вы не можете отвечать на сообщения
Вы не можете редактировать свои сообщения
Вы не можете удалять свои сообщения
Вы не можете голосовать в опросах
Вы не можете прикреплять файлы к сообщениям
Вы не можете скачивать файлы

!ВНИМАНИЕ!
Сайт не предоставляет электронные версии произведений, а занимается лишь коллекционированием и каталогизацией ссылок, присылаемых и публикуемых на форуме нашими читателями. Если вы являетесь правообладателем какого-либо представленного материала и не желаете, чтобы ссылка на него находилась в нашем каталоге, свяжитесь с нами, и мы незамедлительно удалим ее. Файлы для обмена на трекере предоставлены пользователями сайта, и администрация не несет ответственности за их содержание. Просьба не заливать файлы, защищенные авторскими правами, а также файлы нелегального содержания!