[ Сегодня идет свободное скачивание без начисления Download ]


Статистика раздачи
Нет
 
   
 
Top  
 
 
-Шов / Stitch (2014) WEB-DLRip- Год выпуска: 2014
Производство: США, Thunderbolt Entertainment, Wolf Pack Film Works
Жанр: Триллер
Перевод: Двуголосый закадровый, профессиональный
Озвучка / Автор перевода: НТВ+
Субтитры: Отсутствуют
Дата мировой премьеры: 14 февраля 2014
Режиссер: Аджай
Продюсер: Брюс Диксон, Трэвис Хафф, Аджай
Актеры: Эдвард Ферлонг, Шона Уолрод, Дайан Салинджер, Лоуренс Мэйсон, Ширли Бренер, Дуглас Тейт, Тиффани Мартин
Описание фильма:
История о скорбящих родителях Марсдене и Серафине, которые пытаются пережить смерть своей маленькой дочери. На пике отчаяния они обращаются к своим друзьям за советом. Их друзья, действуя из лучших побуждений, вывозят их далеко в пустыню, чтобы там они, пройдя некий ритуал, смогли избавиться от своих переживаний. Но все пошло наперекосяк…
Продолжительность: 01:34:51
Качество видео: WEB-DLRip
Видеокодек: XviD
Битрейт видео: ~1862 Кбит/с
Размер кадра: 720x400
Аудиокодек: AC3 2.0
Битрейт аудио: 192 Кбит/с

MediaInfo

Общее
Полное имя                               : Stitch.2014.P.WEB-DLRip.1400Mb.avi
Формат                                   : AVI
Формат/Информация                        : Audio Video Interleave
Размер файла                             : 1,37 Гбайт
Продолжительность                        : 1 ч. 34 м.
Общий поток                              : 2063 Кбит/сек
Программа кодирования                    : VirtualDubMod 1.5.10.3 | [url=http://www.virtualdub-fr.org]www.virtualdub-fr.org[/url] || (build 2550/release)
Библиотека кодирования                   : VirtualDubMod build 2550/release
Видео
Идентификатор                            : 0
Формат                                   : MPEG-4 Visual
Профиль формата                          : Advanced Simple@L5
Параметр BVOP формата                    : 1
Параметр QPel формата                    : Нет
Параметр GMC формата                     : Без точки перехода
Параметр матрицы формата                 : Выборочная
Идентификатор кодека                     : XVID
Идентификатор кодека/Подсказка           : XviD
Продолжительность                        : 1 ч. 34 м.
Битрейт                                  : 1862 Кбит/сек
Ширина                                   : 720 пикселей
Высота                                   : 400 пикселей
Соотношение сторон                       : 16:9
Частота кадров                           : 23,976 кадра/сек
Цветовое пространство                    : YUV
Субдискретизация насыщенности            : 4:2:0
Битовая глубина                          : 8 бит
Тип развёртки                            : Прогрессивная
Метод сжатия                             : С потерями
Бит/(Пиксели*Кадры)                      : 0.270
Размер потока                            : 1,23 Гбайт (90%)
Библиотека кодирования                   : XviD 1.2.1 (UTC 2008-12-04)
Аудио
Идентификатор                            : 1
Формат                                   : AC-3
Формат/Информация                        : Audio Coding 3
Расширение режима                        : CM (complete main)
Параметр Endianness формата              : Big
Идентификатор кодека                     : 2000
Продолжительность                        : 1 ч. 34 м.
Вид битрейта                             : Постоянный
Битрейт                                  : 192 Кбит/сек
Каналы                                   : 2 канала
Расположение каналов                     : Front: L R
Частота                                  : 48,0 КГц
Битовая глубина                          : 16 бит
Метод сжатия                             : С потерями
Размер потока                            : 130 Мбайт (9%)
Выравнивание                             : Разделение по промежуткам
Продолжительность промежутка             : 42  мс. (1,00 видеокадр)
Время предзагрузки промежутка            : 500  мс.
Скриншоты:
[th]http://img.torrentsclub.org/di/I7WC/86fd72eb37403fa...448f179.png[/th] [th]http://img.torrentsclub.org/di/IAVR/7161f0375757d20...02dedea.png[/th] [th]http://img.torrentsclub.org/di/3KT7/91221aa964a4eb5...3ea0357.png[/th] [th]http://img.torrentsclub.org/di/YFOB/9890334c638df37...5beab53.png[/th]
Время раздачи: 24/7 (до 10 скачавших)

[Цитировать]

Топик был перенесен из форума Новинки кинопроката в форум Триллер
Henkok



Показать сообщения:    

Текущее время: 08-Дек 03:02

Часовой пояс: UTC + 3


Вы не можете начинать темы
Вы не можете отвечать на сообщения
Вы не можете редактировать свои сообщения
Вы не можете удалять свои сообщения
Вы не можете голосовать в опросах
Вы не можете прикреплять файлы к сообщениям
Вы не можете скачивать файлы

!ВНИМАНИЕ!
Сайт не предоставляет электронные версии произведений, а занимается лишь коллекционированием и каталогизацией ссылок, присылаемых и публикуемых на форуме нашими читателями. Если вы являетесь правообладателем какого-либо представленного материала и не желаете, чтобы ссылка на него находилась в нашем каталоге, свяжитесь с нами, и мы незамедлительно удалим ее. Файлы для обмена на трекере предоставлены пользователями сайта, и администрация не несет ответственности за их содержание. Просьба не заливать файлы, защищенные авторскими правами, а также файлы нелегального содержания!