[ Сегодня идет свободное скачивание без начисления Download ]


Статистика раздачи
Нет
 
   
 
 
 
Современная электросеть-
-
Год: 2013
Автор: Михайлов В. Е. и др.
Жанр: Умелые ручки, домоводство
Издательство: «Наука и техника»
Формат: DjVu
Количество страниц: 254
Качество: Отличное (Скан страниц)-Описание:
Впервые книга по домашней электросети снабжается видеокурсом на DVD. В нем есть потребность у современного домашнего мастера. Бурный рост развития техники пришел в XXI веке к нам в повседневную жизнь. Появилась новая энергопотребляющая техника, оптимальные решения построения электросети квартиры, дачи, коттеджа, загородного дома. Выросли и требования к обеспечению безопасности человека, пользующегося всеми благами современного электроснабжения.
Эта практическая книга с видеокурсом призвана познакомить читателя с устройством, проектированием, монтажом, правилами безопасной эксплуатации, обслуживанием, ремонтом электросети современного жилища. Книга будет полезна и тем, кто делает ремонт квартиры, и тем, кто формирует под свои задачи электросеть строящегося коттеджа или купленной квартиры в новостройке в состоянии «без отделки, после строителей».
Книга и видеокурс воспринимаются легко, читатель находит простые ответы на многие сложные вопросы. Изложение материала ведется на современной базе нового 7-го издания ПУЭ (Правил устройства электроустановок). При этом не следует забывать, что ряд сложных вопросов электроснабжения вместе с вами должны решать профессионалы.
Книга предназначена для широкого круга читателей.

Содержание

• Глава 1. Безопасность - прежде всего
• Глава 2. Системы заземления: особенности, выбор, использование
• Глава 3. Электросеть многоквартирного дома
• Глава 4. Электросеть деревянного дома
• Глава 5. Электропроводка: разновидности, структура, геометрия, особенности
• Глава 6. Защита дома от удара молнии
• Глава 7. Освещение современной квартиры и дома
• Глава 8. Автоматы защиты по току или просто автоматические выключатели
• Глава 9. УЗО — устройства защитного отключения
• Глава 10. Современные электросчетчики
• Глава 11. Диагностика и ремонт электросети
• Приложение 1. Обзор ресурсов сети Интернет по современной электросети
• Приложение 2. Обзор мультимедиа для электриков
• Приложение 3. Описание прилагаемого диска с видеокурсом
• Список ресурсов Интернет
-

Видеокурс "Современная электросеть"

Современная электросеть-
  • Год выпуска: 2013
  • Страна: Россия
  • Тематика: Электросеть, домоводство
  • Тип материала: Обучающее видео
  • Продолжительность: ~3 часа
  • Автор: В. Е. Михайлов
  • Язык: Русский
-Описание:
Впервые книга по домашней электросети снабжается видеокурсом на DVD. В нем есть потребность у современного домашнего мастера. Бурный рост развития техники пришел в XXI веке к нам в повседневную жизнь. Появилась новая энергопотребляющая техника, оптимальные решения построения электросети квартиры, дачи, коттеджа, загородного дома.-
  • Качество: PCRec
  • Формат: MP4, MPG
  • Видео кодек: Advanced Video Coding
  • Аудио кодек: AAC-LC
  • Видео: AVC, 720x480, 672x512, 1664х1232, 352х288, 360х270 (4:3), ~240 - 720 - 6536 kbps, 14.985 fps
  • Аудио: AAC-LC, 44.1 KHz, 2 ch, 128 Kbps, CBR

MediaInfo

Общее
Полное имя : Y:\Видеодам\Современная электросеть - видеокурс\Освещение современного дома\Лампа_капает вода.mpg
Формат : MPEG-PS
Размер файла : 53,7 Мбайт
Продолжительность : 1 м. 7 с.
Режим общего битрейта : Переменный
Общий поток : 6638 Кбит/сек
Общее
Полное имя : Y:\Видеодам\Современная электросеть - видеокурс\Освещение современного дома\лампы должны быть пожаробезопасными.mpg
Формат : MPEG-PS
Размер файла : 159 Мбайт
Продолжительность : 3 м. 13 с.
Режим общего битрейта : Переменный
Общий поток : 6897 Кбит/сек
Видео
Идентификатор : 224 (0xE0)
Формат : MPEG Video
Версия формата : Version 2
Профиль формата : Main@Main
Параметр BVOP формата : Да
Параметр матрицы формата : По умолчанию
Параметр GOP формата : M=3, N=12
Продолжительность : 3 м. 13 с.
Вид битрейта : Переменный
Битрейт : 6536 Кбит/сек
Максимальный битрейт : 9500 Кбит/сек
Ширина : 720 пикселей
Высота : 576 пикселей
Соотношение сторон : 4:3
Частота кадров : 25,000 кадров/сек
Стандарт вещания : PAL
Цветовое пространство : YUV
Субдискретизация насыщенности : 4:2:0
Битовая глубина : 8 бит
Тип развёртки : Чересстрочная
Порядок развёртки : Нижнее поле первое
Метод сжатия : С потерями
Бит/(Пиксели*Кадры) : 0.630
Размер потока : 151 Мбайт (95%)
Аудио
Идентификатор : 192 (0xC0)
Формат : MPEG Audio
Версия формата : Version 1
Профиль формата : Layer 2
Продолжительность : 3 м. 13 с.
Вид битрейта : Постоянный
Битрейт : 224 Кбит/сек
Каналы : 2 канала
Частота : 48,0 КГц
Метод сжатия : С потерями
Размер потока : 5,16 Мбайт (3%)
Общее
Полное имя : Y:\Видеодам\Современная электросеть - видеокурс\Современные электросчетчики\счетчик.mp4
Формат : MPEG-4
Профиль формата : Base Media / Version 2
Идентификатор кодека : mp42
Размер файла : 41,1 Мбайт
Продолжительность : 6 м. 24 с.
Общий поток : 897 Кбит/сек
Дата кодирования : UTC 2012-03-21 09:10:51
Дата пометки : UTC 2012-03-21 09:10:51
Видео
Идентификатор : 2
Формат : AVC
Формат/Информация : Advanced Video Codec
Профиль формата : Main@L5.0
Параметр CABAC формата : Да
Параметр ReFrames формата : 5 кадров
Параметр GOP формата : M=3, N=24
Идентификатор кодека : avc1
Идентификатор кодека/Информация : Advanced Video Coding
Продолжительность : 6 м. 24 с.
Вид битрейта : Переменный
Битрейт : 765 Кбит/сек
Ширина : 1664 пикселя
Высота : 1232 пикселя
Соотношение сторон : 4:3
Режим частоты кадров : Постоянный
Частота кадров : 14,985 кадров/сек
Стандарт вещания : NTSC
Цветовое пространство : YUV
Субдискретизация насыщенности : 4:2:0
Битовая глубина : 8 бит
Тип развёртки : Прогрессивная
Бит/(Пиксели*Кадры) : 0.025
Размер потока : 35,1 Мбайт (85%)
Язык : English
Дата кодирования : UTC 2012-03-21 09:10:51
Дата пометки : UTC 2012-03-21 09:10:51
Аудио
Идентификатор : 1
Формат : AAC
Формат/Информация : Advanced Audio Codec
Профиль формата : LC
Идентификатор кодека : 40
Продолжительность : 6 м. 24 с.
Вид битрейта : Постоянный
Битрейт : 128 Кбит/сек
Каналы : 2 канала
Расположение каналов : Front: L R
Частота : 44,1 КГц
Метод сжатия : С потерями
Размер потока : 5,88 Мбайт (14%)
Язык : English
Дата кодирования : UTC 2012-03-21 09:10:51
Дата пометки : UTC 2012-03-21 09:10:51
Общее
Полное имя : Y:\Видеодам\Современная электросеть - видеокурс\Электропроводка\клемник G(короткий).mpg
Формат : MPEG-PS
Размер файла : 30,7 Мбайт
Продолжительность : 54 с.
Режим общего битрейта : Переменный
Общий поток : 4759 Кбит/сек
Видео
Идентификатор : 224 (0xE0)
Формат : MPEG Video
Версия формата : Version 2
Профиль формата : Main@Main
Параметр BVOP формата : Да
Параметр матрицы формата : По умолчанию
Параметр GOP формата : M=3, N=15
Продолжительность : 54 с.
Вид битрейта : Переменный
Битрейт : 4440 Кбит/сек
Максимальный битрейт : 8000 Кбит/сек
Ширина : 720 пикселей
Высота : 480 пикселей
Соотношение сторон : 4:3
Частота кадров : 29,970 кадров/сек
Стандарт вещания : NTSC
Цветовое пространство : YUV
Субдискретизация насыщенности : 4:2:0
Битовая глубина : 8 бит
Тип развёртки : Чересстрочная
Порядок развёртки : Нижнее поле первое
Метод сжатия : С потерями
Бит/(Пиксели*Кадры) : 0.429
Размер потока : 28,6 Мбайт (93%)
Аудио
Идентификатор : 192 (0xC0)
Формат : MPEG Audio
Версия формата : Version 1
Профиль формата : Layer 1
Продолжительность : 54 с.
Вид битрейта : Постоянный
Битрейт : 224 Кбит/сек
Каналы : 1 канал
Частота : 44,1 КГц
Метод сжатия : С потерями
Размер потока : 1,44 Мбайт (5%)
Общее
Полное имя : Y:\Видеодам\Современная электросеть - видеокурс\Электропроводка\Монт_клемма_нагрузка 25 утюгов.mpg
Формат : MPEG-PS
Размер файла : 48,9 Мбайт
Продолжительность : 3 м. 15 с.
Общий поток : 2103 Кбит/сек
Видео
Идентификатор : 224 (0xE0)
Формат : MPEG Video
Версия формата : Version 1
Параметр BVOP формата : Да
Параметр матрицы формата : Выборочная
Продолжительность : 3 м. 15 с.
Битрейт : 1837 Кбит/сек
Максимальный битрейт : 1150 Кбит/сек
Ширина : 352 пикселя
Высота : 288 пикселей
Соотношение сторон : 4:3
Частота кадров : 25,000 кадров/сек
Стандарт вещания : PAL
Цветовое пространство : YUV
Битовая глубина : 8 бит
Тип развёртки : Прогрессивная
Метод сжатия : С потерями
Бит/(Пиксели*Кадры) : 0.725
Размер потока : 42,7 Мбайт (87%)
Аудио
Идентификатор : 192 (0xC0)
Формат : MPEG Audio
Версия формата : Version 1
Профиль формата : Layer 2
Продолжительность : 3 м. 15 с.
Вид битрейта : Постоянный
Битрейт : 224 Кбит/сек
Каналы : 2 канала
Частота : 44,1 КГц
Метод сжатия : С потерями
Размер потока : 5,21 Мбайт (11%)
Общее
Полное имя : Y:\Видеодам\Современная электросеть - видеокурс\Электропроводка\Таймер 02.mp4
Формат : MPEG-4
Профиль формата : Base Media / Version 2
Идентификатор кодека : mp42
Размер файла : 8,03 Мбайт
Продолжительность : 4 м. 9 с.
Режим общего битрейта : Постоянный
Общий поток : 270 Кбит/сек
Дата кодирования : UTC 2011-04-19 05:45:54
Дата пометки : UTC 2011-04-19 05:45:54
Видео
Идентификатор : 2
Формат : AVC
Формат/Информация : Advanced Video Codec
Профиль формата : Main@L1.3
Параметр CABAC формата : Да
Параметр ReFrames формата : 5 кадров
Параметр GOP формата : M=3, N=24
Идентификатор кодека : avc1
Идентификатор кодека/Информация : Advanced Video Coding
Продолжительность : 4 м. 9 с.
Вид битрейта : Постоянный
Битрейт : 240 Кбит/сек
Ширина : 360 пикселей
Высота : 270 пикселей
Соотношение сторон : 4:3
Режим частоты кадров : Постоянный
Частота кадров : 25,000 кадров/сек
Стандарт вещания : NTSC
Цветовое пространство : YUV
Субдискретизация насыщенности : 4:2:0
Битовая глубина : 8 бит
Тип развёртки : Прогрессивная
Бит/(Пиксели*Кадры) : 0.099
Размер потока : 6,96 Мбайт (87%)
Язык : English
Дата кодирования : UTC 2011-04-19 05:45:54
Дата пометки : UTC 2011-04-19 05:45:54
Аудио
Идентификатор : 1
Формат : AAC
Формат/Информация : Advanced Audio Codec
Профиль формата : LC
Идентификатор кодека : 40
Продолжительность : 4 м. 9 с.
Вид битрейта : Постоянный
Битрейт : 32,0 Кбит/сек
Каналы : 2 канала
Расположение каналов : Front: L R
Частота : 32,0 КГц
Метод сжатия : С потерями
Размер потока : 977 Кбайт (12%)
Язык : English
Дата кодирования : UTC 2011-04-19 05:45:54
Дата пометки : UTC 2011-04-19 05:45:54

[Цитировать]



Показать сообщения:    

Текущее время: 08-Дек 06:59

Часовой пояс: UTC + 3


Вы не можете начинать темы
Вы не можете отвечать на сообщения
Вы не можете редактировать свои сообщения
Вы не можете удалять свои сообщения
Вы не можете голосовать в опросах
Вы не можете прикреплять файлы к сообщениям
Вы не можете скачивать файлы

!ВНИМАНИЕ!
Сайт не предоставляет электронные версии произведений, а занимается лишь коллекционированием и каталогизацией ссылок, присылаемых и публикуемых на форуме нашими читателями. Если вы являетесь правообладателем какого-либо представленного материала и не желаете, чтобы ссылка на него находилась в нашем каталоге, свяжитесь с нами, и мы незамедлительно удалим ее. Файлы для обмена на трекере предоставлены пользователями сайта, и администрация не несет ответственности за их содержание. Просьба не заливать файлы, защищенные авторскими правами, а также файлы нелегального содержания!