[ Сегодня идет свободное скачивание без начисления Download ]


Статистика раздачи
Нет
 
   
 
Top  
 
 
-Я, снова я и мама / Les garcons et Guillaume, a table! (2013) DVB
«Мужчинами не рождаются»
- Год выпуска: 2013
Производство: Франция, Бельгия
Жанр: Комедия
Перевод: Многоголосый закадровый, профессиональный
Субтитры: Отсутствуют-Дата мировой премьеры: 20 мая 2013 (Франция, Каннский кинофестиваль)
Дата российской премьеры: 19 декабря 2013, «Премиум Фильм»
Дата выхода DVD релиза: 27 февраля 2014, «CP Дистрибуция»
Дата выхода Blu-Ray релиза: 27 февраля 2014, «CP Дистрибуция»-Режиссер: Гийом Гальенн-Продюсер: Сирил Кольбо-Жюстен, Жан-Батист Дюпон, Дэвид Джордано-Актеры: Гийом Гальенн, Андре Маркон, Франсуаза Фабиан, Нану Гарсия, Дайан Крюгер, Реда Катеб, Гёц Отто, Бриджитт Катийон, Кэрол Бреннер, Чарли Энсон ...-Описание фильма:
Гийом настолько боготворит свою мамочку, что всячески подражает ее манерам и поведению. Странные интересы, необъяснимые действия заставляют окружающих думать, что все не так просто в жизни молодого человека.
Продолжительность: 01:22:47
Качество видео: DVB
Видеокодек: MPEG-2
Битрейт видео: ~ 4598 Кбит/сек
Размер кадра: 720 x 576@1024 x 576 (1.778) at 25.000 fps
Аудиокодек: AC3 5.1
Битрейт аудио: 448 Кбит/сек, 48,0 КГц, 16 бит

Награды

Знаете ли вы, что...

• Экранизация одноименной пьесы Гийома Гальенна.

MediaInfo:

Полное имя                               : G:\Ya.snova.ya.i.mama.2013.DVB.mpg
Формат                                   : MPEG-PS
Размер файла                             : 2,98 Гбайт
Продолжительность                        : 1 ч. 22 м.
Режим общего битрейта                    : Переменный
Общий поток                              : 5149 Кбит/сек
Видео
Идентификатор                            : 224 (0xE0)
Формат                                   : MPEG Video
Версия формата                           : Version 2
Профиль формата                          : Main@Main
Параметр BVOP формата                    : Да
Параметр матрицы формата                 : Выборочная
Параметр GOP формата                     : Variable
Продолжительность                        : 1 ч. 22 м.
Вид битрейта                             : Переменный
Битрейт                                  : 4598 Кбит/сек
Максимальный битрейт                     : 15,0 Мбит/сек
Ширина                                   : 720 пикселей
Высота                                   : 576 пикселей
Соотношение сторон                       : 16:9
Частота кадров                           : 25,000 кадров/сек
Стандарт вещания                         : PAL
Цветовое пространство                    : YUV
Субдискретизация насыщенности            : 4:2:0
Битовая глубина                          : 8 бит
Тип развёртки                            : Чересстрочная
Порядок развёртки                        : Верхнее поле первое
Метод сжатия                             : С потерями
Бит/(Пиксели*Кадры)                      : 0.444
Временной код первого кадра              : 00:00:00:00
Оригинал временного кода                 : Group of pictures header
Размер потока                            : 2,66 Гбайт (89%)
Аудио
Идентификатор                            : 189 (0xBD)-128 (0x80)
Формат                                   : AC-3
Формат/Информация                        : Audio Coding 3
Расширение режима                        : CM (complete main)
Параметр Endianness формата              : Big
Режим смешивания                         : DVD-Video
Продолжительность                        : 1 ч. 22 м.
Вид битрейта                             : Постоянный
Битрейт                                  : 448 Кбит/сек
Каналы                                   : 6 каналов
Расположение каналов                     : Front: L C R, Side: L R, LFE
Частота                                  : 48,0 КГц
Битовая глубина                          : 16 бит
Метод сжатия                             : С потерями
Задержка видео                           : 1 мс.
Размер потока                            : 265 Мбайт (9%)
Скриншоты:

[th]http://img.torrentsclub.org/di/7E3P/0bbe480f4141.png[/th] [th]http://img.torrentsclub.org/di/AEX4/6038c6c12cb6.png[/th] [th]http://img.torrentsclub.org/di/5Q34/f5badbdde7cb.png[/th]

--Время раздачи: 24/7 (до 10 скачавших)

[Цитировать]

Топик был перенесен из форума Новинки кинопроката в форум Комедия
Henkok



Показать сообщения:    

Текущее время: 08-Дек 09:04

Часовой пояс: UTC + 3


Вы не можете начинать темы
Вы не можете отвечать на сообщения
Вы не можете редактировать свои сообщения
Вы не можете удалять свои сообщения
Вы не можете голосовать в опросах
Вы не можете прикреплять файлы к сообщениям
Вы не можете скачивать файлы

!ВНИМАНИЕ!
Сайт не предоставляет электронные версии произведений, а занимается лишь коллекционированием и каталогизацией ссылок, присылаемых и публикуемых на форуме нашими читателями. Если вы являетесь правообладателем какого-либо представленного материала и не желаете, чтобы ссылка на него находилась в нашем каталоге, свяжитесь с нами, и мы незамедлительно удалим ее. Файлы для обмена на трекере предоставлены пользователями сайта, и администрация не несет ответственности за их содержание. Просьба не заливать файлы, защищенные авторскими правами, а также файлы нелегального содержания!