[ Сегодня идет свободное скачивание без начисления Download ]


Статистика раздачи
Нет
 
   
 
 
 
Информация о фильме
Название: Наруто Ураганные хроники
Оригинальное название: Naruto Shippuuden
Год выхода: 2007 - 2014
Жанр: Приключения, комедия, боевые искусства, сёнэн
Режиссер: Датэ Хаято
В ролях: Такэути Дзюнко, Накамура Тиэ, Иноэ Кадзухико, Оцука Хотю, Кацуки Масако, Нэмото Кэйко, Морикубо Сётаро, Сэки Тосихико, Тобита Нобуо, Цубой Томохиро, Отани Икуэ, Паку Роми, Мидзуки Нана-О фильме:
В мире Наруто незаметно пролетели два года. Бывшие новички пополнили ряды опытных синоби в ранге тюнин и дзёнин. Главные герои не сидели на месте – каждый стал учеником одного из легендарных Саннин – трех великих ниндзя Конохи. Парень в оранжевом продолжил обучение у мудрого, но эксцентричного Дзирайи, постепенно восходя на новую ступень боевого мастерства. Сакура выдвинулась в помощницы и доверенные лица целительницы Цунадэ – нового вождя Деревни Листвы. Ну а Саскэ, чья гордыня привела к изгнанию из Конохи, вступил во временный союз со зловещим Оротимару, причем каждый считает, что лишь использует другого до поры до времени.
Краткая передышка закончилась, и события в очередной раз понеслись с ураганной быстротой. В Конохе вновь прорастают семена старых раздоров, посеянные первыми Хокагэ. Таинственный лидер Акацуки привел в действие план обретения мирового господства. Неспокойно в Деревне Песка и соседних странах, везде всплывают старые тайны, и ясно, что когда-то придется платить по счетам. Долгожданное продолжение манги вдохнуло новую жизнь в сериал и новую надежду в сердца бесчисленных фанатов!-Страна: Япония
Продолжительность: ~ 00:20:04
Перевод: Любительский Одноголосый закадровый [RainDeath]-Файл
Качество: HDTVRip
Формат: MKV
Видео кодек: AVC
Аудио кодек: MP3
Видео: MPEG4 Video (H264) 1280x720 23.976fps , [email protected] 16:9
Аудио: RU 44100Hz stereo 128 Kbps 2 channels 44.1 KHz-

MediaInfo:

General
Unique ID : 217936385173904018151659142444171567525 (0xA3F505616C0E8128A6F289247C76A1A5)
Complete name : E:\Naruto Shippuuden 720p
Format : Matroska
Format version : Version 2
File size : 438 MiB
Duration : 23mn 9s
Overall bit rate : 2 643 Kbps
Encoded date : UTC 2014-01-30 13:35:57
Writing application : mkvmerge v2.9.8 ('C'est le bon') built on Aug 13 2009 12:49:06
Writing library : libebml v0.7.7 + libmatroska v0.8.1
Video
ID : 2
Format : AVC
Format/Info : Advanced Video Codec
Format profile : [email protected]
Format settings, CABAC : Yes
Format settings, ReFrames : 6 frames
Codec ID : V_MPEG4/ISO/AVC
Duration : 23mn 9s
Bit rate : 2 463 Kbps
Width : 1 280 pixels
Height : 720 pixels
Display aspect ratio : 16:9
Frame rate mode : Constant
Frame rate : 23.976 fps
Color space : YUV
Chroma subsampling : 4:2:0
Bit depth : 8 bits
Scan type : Progressive
Bits/(Pixel*Frame) : 0.111
Stream size : 408 MiB (93%)
Writing library : x264 core 140 r2377+40 929f149 tMod [[email protected] X86_64]
Encoding settings : cabac=1 / ref=6 / deblock=1:1:1 / analyse=0x3:0x133 / me=umh / subme=9 / psy=1 / fade_compensate=0.00 / psy_rd=0.40:0.00 / mixed_ref=1 / me_range=32 / chroma_me=1 / trellis=2 / 8x8dct=1 / cqm=0 / deadzone=21,11 / fast_pskip=0 / chroma_qp_offset=-2 / threads=12 / lookahead_threads=1 / sliced_threads=0 / nr=0 / decimate=1 / interlaced=0 / bluray_compat=0 / constrained_intra=0 / fgo=0 / bframes=4 / b_pyramid=2 / b_adapt=2 / b_bias=0 / direct=3 / weightb=1 / open_gop=0 / weightp=2 / keyint=250 / keyint_min=23 / scenecut=40 / intra_refresh=0 / rc_lookahead=50 / rc=crf / mbtree=1 / crf=17.5000 / qcomp=0.60 / qpmin=0:0:0 / qpmax=69:69:69 / qpstep=4 / ip_ratio=1.40 / aq=1:0.60 / aq-sensitivity=10.00 / aq-factor=1.00:1.00:1.00 / aq2=0 / aq3=0
Default : Yes
Forced : No
Color primaries : BT.709
Transfer characteristics : BT.709
Matrix coefficients : BT.709
Audio
ID : 1
Format : MPEG Audio
Format version : Version 1
Format profile : Layer 3
Mode : Joint stereo
Mode extension : MS Stereo
Codec ID : A_MPEG/L3
Codec ID/Hint : MP3
Duration : 23mn 9s
Bit rate mode : Constant
Bit rate : 128 Kbps
Channel(s) : 2 channels
Sampling rate : 44.1 KHz
Compression mode : Lossy
Stream size : 21.2 MiB (5%)
Default : Yes
Forced : No

Для тех,кто хочет скачать только одну серию.

[th]http://i59.fastpic.ru/big/2014/0130/8e/c0868462cccd...c36c48e.jpg[/th]

[Цитировать]



Показать сообщения:    

Текущее время: 05-Дек 15:38

Часовой пояс: UTC + 3


Вы не можете начинать темы
Вы не можете отвечать на сообщения
Вы не можете редактировать свои сообщения
Вы не можете удалять свои сообщения
Вы не можете голосовать в опросах
Вы не можете прикреплять файлы к сообщениям
Вы не можете скачивать файлы

!ВНИМАНИЕ!
Сайт не предоставляет электронные версии произведений, а занимается лишь коллекционированием и каталогизацией ссылок, присылаемых и публикуемых на форуме нашими читателями. Если вы являетесь правообладателем какого-либо представленного материала и не желаете, чтобы ссылка на него находилась в нашем каталоге, свяжитесь с нами, и мы незамедлительно удалим ее. Файлы для обмена на трекере предоставлены пользователями сайта, и администрация не несет ответственности за их содержание. Просьба не заливать файлы, защищенные авторскими правами, а также файлы нелегального содержания!