[ Сегодня идет свободное скачивание без начисления Download ]


Статистика раздачи
Нет
 
   
 
Top  
 
 
-Пятая власть / The Fifth Estate (2013) HDRip- Год выпуска: 2013
Производство: США, Бельгия, DreamWorks SKG, Reliance Entertainment, Participant Media
Жанр: Триллер, Драма
Перевод: Дублированный (Лицензия)
Субтитры: Отсутствуют
Дата мировой премьеры: 5 сентября 2013
Дата российской премьеры: 24 октября 2013, «WDSSPR»
Дата выхода DVD релиза: 18 февраля 2014, «Уолт Дисней Компани СНГ»
Режиссер: Билл Кондон
Продюсер: Стив Голин, Пол Грин, Джонатан Кинг
Актеры: Бенедикт Камбербэтч, Даниэль Брюль, Кэрис ван Хаутен, Энтони Маки, Дэвид Тьюлис, Алисия Викандер, Стэнли Туччи, Лора Линни, Питер Капальди, Анатоль Таубман, Александр Байер
Описание фильма:
В мире, где информация ценится превыше всего, а утечка сведений под грифом «секретно» может вызвать необратимые последствия, сайт WikiLeaks навсегда поменял правила игры. Фильм, основанный на реальных событиях, рассказывает о попытке разоблачить государственную коррупцию и ложь властей, которая превратила интернет-стартап в одну из самых известных и обсуждаемых организаций 21-го века. За первые годы существования WIKILEAKS обнародовал больше тайн, чем самые влиятельные в мире СМИ вместе взятые, раскрывая постыдные секреты государственных служб и финансовые преступления корпораций. Но когда основатели сайта получили доступ к крупнейшему засекреченному архиву США, им предстояло найти для себя ответ на один из важнейших вопросов современности: какова цена тайны в свободном обществе — и какова цена ее разглашения?

Рейтинг R17 - Детям до 17 лет обязательно присутствие родителей
Продолжительность: 02:08:15
Качество видео: HDRip
Видеокодек: XviD
Битрейт видео: 1233 kb/s
Размер кадра: 720x304
Аудиокодек: AC3 5.1
Битрейт аудио: 384 kb/s

MI

Общее
Полное имя                               : D:\Раздачи\Pyataya.Vlasti.2013.HDRip.NNM-CLUB.avi
Формат                                   : AVI
Формат/Информация                        : Audio Video Interleave
Размер файла                             : 1,46 Гбайт
Продолжительность                        : 2 ч. 8 м.
Общий поток                              : 1626 Кбит/сек
Программа кодирования                    : VirtualDubMod 1.5.10.2 (build 2540/release)
Библиотека кодирования                   : VirtualDubMod build 2540/release
Видео
Идентификатор                            : 0
Формат                                   : MPEG-4 Visual
Профиль формата                          : Advanced Simple@L5
Параметр BVOP формата                    : 2
Параметр QPel формата                    : Нет
Параметр GMC формата                     : Без точки перехода
Параметр матрицы формата                 : Default (MPEG)
Идентификатор кодека                     : XVID
Идентификатор кодека/Подсказка           : XviD
Продолжительность                        : 2 ч. 8 м.
Продолжительность оригинала              : 42 м.
Битрейт                                  : 1233 Кбит/сек
Ширина                                   : 720 пикселей
Высота                                   : 304 пикселя
Соотношение сторон                       : 2,35:1
Частота кадров                           : 23,976 кадра/сек
Цветовое пространство                    : YUV
Субдискретизация насыщенности            : 4:2:0
Битовая глубина                          : 8 бит
Тип развёртки                            : Прогрессивная
Метод сжатия                             : С потерями
Бит/(Пиксели*Кадры)                      : 0.268
Размер потока                            : 427 Мбайт (29%)
Библиотека кодирования                   : XviD 1.2.1 (UTC 2008-12-04)
Аудио
Идентификатор                            : 1
Формат                                   : AC-3
Формат/Информация                        : Audio Coding 3
Расширение режима                        : CM (complete main)
Параметр Endianness формата              : Big
Идентификатор кодека                     : 2000
Продолжительность                        : 2 ч. 8 м.
Продолжительность оригинала              : 42 м.
Вид битрейта                             : Постоянный
Битрейт                                  : 384 Кбит/сек
Каналы                                   : 6 каналов
Расположение каналов                     : Front: L C R, Side: L R, LFE
Частота                                  : 48,0 КГц
Битовая глубина                          : 16 бит
Метод сжатия                             : С потерями
Размер потока                            : 117 Мбайт (8%)
Выравнивание                             : Разделение по промежуткам
Продолжительность промежутка             : 42  мс. (1,00 видеокадр)
Время предзагрузки промежутка            : 500  мс.

[Цитировать]



Показать сообщения:    

Текущее время: 10-Дек 08:08

Часовой пояс: UTC + 3


Вы не можете начинать темы
Вы не можете отвечать на сообщения
Вы не можете редактировать свои сообщения
Вы не можете удалять свои сообщения
Вы не можете голосовать в опросах
Вы не можете прикреплять файлы к сообщениям
Вы не можете скачивать файлы

!ВНИМАНИЕ!
Сайт не предоставляет электронные версии произведений, а занимается лишь коллекционированием и каталогизацией ссылок, присылаемых и публикуемых на форуме нашими читателями. Если вы являетесь правообладателем какого-либо представленного материала и не желаете, чтобы ссылка на него находилась в нашем каталоге, свяжитесь с нами, и мы незамедлительно удалим ее. Файлы для обмена на трекере предоставлены пользователями сайта, и администрация не несет ответственности за их содержание. Просьба не заливать файлы, защищенные авторскими правами, а также файлы нелегального содержания!