[ Сегодня идет свободное скачивание без начисления Download ]


Статистика раздачи
Нет
 
   
 
Top  
 
 
-Единственный выстрел / A Single Shot (2013) BDRip- Год выпуска: 2013
Производство: Великобритания, США, Канада - A Single Shot Productions, Unified Pictures, Media House Capital
Жанр: Триллер, Драма, Криминал
Перевод: Одноголосый закадровый, любительский [Max Nabokov]
Субтитры: Вшитые отключаемые
Язык субтитров: Английский
Режиссер: Дэвид М. Розенталь / David M. Rosenthal
Актеры: Сэм Рокуэлл, Уильям Х. Мэйси, Форест Уитакер, Джеймс Бэдж Дэйл, Нут Сиир, Офелия Ловибонд, Джейсон Айзекс, Джеффри Райт, Джо Андерсон, Келли Райлли
Описание фильма:
Порой досадная случайность может обернуться настоящим кошмаром и сломать всю жизнь. Однажды Джон Мун отправился на охоту и совершил ошибку, которая изменила все. Привыкший охотиться на оленей в давно проверенном месте, он и представить себе не мог, что примет за дикое животное человека. Вместо оленя Джон случайно застрелил молодую женщину, а когда понял, что натворил, было уже поздно – Джон отличный охотник и редко промахивается.Попытки оказать первую помощь не дали никакого результата, но при убитой Джон обнаружил странную находку. У женщины была при себе большая сумма денег и письмо. Стремясь скрыть следы несчастного случая, Джон совершает один проступок за другим, и его жизнь становится одним сплошным страшным сном. Как убитая оказалась здесь, в глуши, совершенно одна и с такой суммой денег? С кем она должна была встретиться? Кто теперь претендует на ее имущество и найдут ли эти люди Джона до того, как он сможет замести все следы?

Дата мировой премьеры: 9 февраля 2013
Продолжительность: 01:55:45
Качество видео: BDRip 1080p
Видеокодек: MPEG-4 AVC/H.264
Видео: H264, 8315 Кбит/с, 1920x800, 23.976 кадр/с
Аудио #1: Русский: DTS, 5.1, 1536 Кбит/с, 48kHz, 16 bit
Аудио #2: Английский: DTS, 5.1, 1536 Кбит/с, 48 kHz, 24 bit
Сохранены оригинальные чаптеры как на Blu-Ray

Знаете ли вы, что...:

* Фильм снят по книге Мэттью Ф. Джонса «Единственный выстрел» (1996).
* Майкл Фассбендер, Томас Хейден Чёрч, Форест Уитакер, Алессандро Нивола, Эмили Мортимер, Джульетт Льюис, Дженнифер Джейсон Ли, Терренс Ховард, Джеймс Бэдж Дэйл, Джуно Темпл и Лесли Манн рассматривались на различные роли, но в итоге отказались от участия в проекте.

Рецензия:

В фильме «Единственный выстрел», выстрела на самом деле было два, и оба они кардинально изменили судьбу главного героя. По своей сущности, это мрачный и темный в цветах психологический триллер, с соответствующей погодой в кадре, необходимым саундтрэком и с безысходной историей главного персонажа.
Мужчина среднего возраста, которого играет замечательно Сэм Рокуэлл, пошел с рассветом поохотиться, да только молодая девушка с письмом любимому и с крупной сумой денег оказалась не в том месте и в не то время. Находясь в тупиковой ситуации наш герой, в принципе, принимает для себя ожидаемое решение, забирает деньги и избавляется от тела.
Главный герой фильма «Единственный выстрел» не страдает маниакальным синдромом, недавние события переживает, девушка ему мерещится время от времени, но вроде бы пытается себя вести, как ни в чем, ни бывало. А тут еще и грядущий развод со своей супругой, финансовые трудности семьи, да и годовалый сын уже не узнает отца на руках.
Но все эти проблемы героя сводятся ни к чему по сравнению с тем, какой ему психологический кошмар устраивает незнакомец, который, по всей видимости, знает о небольшом секрете главного героя. По атмосфере фильм не отпускает ни на минуту, это не классический триллер, здесь нет динамики как таковой, но переживания главного героя переданы неплохо.
Возможно, фильм бы утратил какой-либо смысл или ценность, если бы не участие в нем Сэма Рокуэлла. Актер в который раз доказал свою способность вытаскивать чужой труд в одиночку, и быть может не сам фильм вышел потрясающим, сколько в нем отлично сыграл Сэм Рокуэлл.
7 из 10

MediaInfo:

Общее
Уникальный идентификатор : 210075871494172172700124548559260721044 (0x9E0B24226E887687977B94AE1CF59F94)
Полное имя : D:\Video\A.Single.Shot.2013.Blu.Ray.1080p.mkv
Формат : Matroska
Версия формата : Version 4 / Version 2
Размер файла : 9,17 Гбайт
Продолжительность : 1 ч. 55 м.
Общий поток : 11,3 Мбит/сек
Дата кодирования : UTC 2014-02-14 10:54:07
Программа кодирования : mkvmerge v6.7.0 ('Back to the Ground') 64bit built on Jan 8 2014 15:10:52
Библиотека кодирования : libebml v1.3.0 + libmatroska v1.4.1
Видео
Идентификатор : 1
Формат : AVC
Формат/Информация : Advanced Video Codec
Профиль формата : [email protected]
Параметр CABAC формата : Да
Параметр ReFrames формата : 5 кадров
Идентификатор кодека : V_MPEG4/ISO/AVC
Продолжительность : 1 ч. 55 м.
Битрейт : 8315 Кбит/сек
Ширина : 1920 пикселей
Высота : 800 пикселей
Соотношение сторон : 2,40:1
Режим частоты кадров : Постоянный
Частота кадров : 23,976 кадра/сек
Цветовое пространство : YUV
Субдискретизация насыщенности : 4:2:0
Битовая глубина : 8 бит
Тип развёртки : Прогрессивная
Бит/(Пиксели*Кадры) : 0.226
Размер потока : 6,54 Гбайт (71%)
Библиотека кодирования : x264 core 140 r2377 1ca7bb9
Настройки программы : cabac=1 / ref=5 / deblock=1:-3:-3 / analyse=0x3:0x113 / me=umh / subme=8 / psy=1 / psy_rd=1.00:0.00 / mixed_ref=1 / me_range=16 / chroma_me=1 / trellis=1 / 8x8dct=1 / cqm=0 / deadzone=21,11 / fast_pskip=1 / chroma_qp_offset=-2 / threads=12 / lookahead_threads=2 / sliced_threads=0 / nr=0 / decimate=1 / interlaced=0 / bluray_compat=0 / constrained_intra=0 / bframes=3 / b_pyramid=2 / b_adapt=2 / b_bias=0 / direct=3 / weightb=1 / open_gop=0 / weightp=2 / keyint=240 / keyint_min=24 / scenecut=40 / intra_refresh=0 / rc_lookahead=50 / rc=2pass / mbtree=1 / bitrate=8315 / ratetol=1.0 / qcomp=0.60 / qpmin=0 / qpmax=69 / qpstep=4 / cplxblur=20.0 / qblur=0.5 / ip_ratio=1.40 / aq=1:1.00
Язык : English
Default : Да
Forced : Нет
Аудио #1
Идентификатор : 2
Формат : DTS
Формат/Информация : Digital Theater Systems
Режим : 16
Параметр Endianness формата : Big
Идентификатор кодека : A_DTS
Продолжительность : 1 ч. 55 м.
Вид битрейта : Постоянный
Битрейт : 1509 Кбит/сек
Каналы : 6 каналов
Расположение каналов : Front: L C R, Side: L R, LFE
Частота : 48,0 КГц
Битовая глубина : 24 бит
Метод сжатия : С потерями
Размер потока : 1,22 Гбайт (13%)
Заголовок : Max Nabokov
Язык : Russian
Default : Да
Forced : Да
Аудио #2
Идентификатор : 3
Формат : DTS
Формат/Информация : Digital Theater Systems
Режим : 16
Параметр Endianness формата : Big
Идентификатор кодека : A_DTS
Продолжительность : 1 ч. 55 м.
Вид битрейта : Постоянный
Битрейт : 1509 Кбит/сек
Каналы : 6 каналов
Расположение каналов : Front: L C R, Side: L R, LFE
Частота : 48,0 КГц
Битовая глубина : 24 бит
Метод сжатия : С потерями
Размер потока : 1,22 Гбайт (13%)
Язык : English
Default : Нет
Forced : Нет
Текст
Идентификатор : 4
Формат : UTF-8
Идентификатор кодека : S_TEXT/UTF8
Идентификатор кодека/Информация : UTF-8 Plain Text
Язык : English
Default : Нет
Forced : Нет
Меню
00:00:00.000 : en:00:00:00.000
00:11:28.479 : en:00:11:28.479
00:20:33.023 : en:00:20:33.023
00:25:23.272 : en:00:25:23.272
00:32:37.205 : en:00:32:37.205
00:41:10.677 : en:00:41:10.677
00:49:41.312 : en:00:49:41.312
01:00:03.099 : en:01:00:03.099
01:06:38.244 : en:01:06:38.244
01:17:00.449 : en:01:17:00.449
01:26:36.358 : en:01:26:36.358
01:36:18.856 : en:01:36:18.856
01:41:23.911 : en:01:41:23.911
01:49:14.006 : en:01:49:14.006
Скриншоты:[th]http://img.torrentsclub.org/di/QWVP/0c36ccbac2658e5...1d8ef16.png[/th] [th]http://img.torrentsclub.org/di/DYPN/a31e448dde9639d...54486f0.png[/th] [th]http://img.torrentsclub.org/di/8S4A/e0894979b44e549...ec7668c.png[/th]Время раздачи: с 10:00 до 20:00 (GMT+2) - до 10 скачавших

[Цитировать]



Показать сообщения:    

Текущее время: 04-Дек 09:13

Часовой пояс: UTC + 3


Вы не можете начинать темы
Вы не можете отвечать на сообщения
Вы не можете редактировать свои сообщения
Вы не можете удалять свои сообщения
Вы не можете голосовать в опросах
Вы не можете прикреплять файлы к сообщениям
Вы не можете скачивать файлы

!ВНИМАНИЕ!
Сайт не предоставляет электронные версии произведений, а занимается лишь коллекционированием и каталогизацией ссылок, присылаемых и публикуемых на форуме нашими читателями. Если вы являетесь правообладателем какого-либо представленного материала и не желаете, чтобы ссылка на него находилась в нашем каталоге, свяжитесь с нами, и мы незамедлительно удалим ее. Файлы для обмена на трекере предоставлены пользователями сайта, и администрация не несет ответственности за их содержание. Просьба не заливать файлы, защищенные авторскими правами, а также файлы нелегального содержания!