[ Сегодня идет свободное скачивание без начисления Download ]


Статистика раздачи
Нет
 
   
 
Top  
 
 
-Час рыси / I lossens time (2013) BDRip- Год выпуска: 2013
Производство: Дания, Швеция - Filmpool Nord, Nimbus Film ApS
Жанр: Драма
Перевод: Одноголосый закадровый, любительский [datynet]
Субтитры: Вшитые отключаемые
Язык субтитров: Русский, английский
Режиссер: Сёрен Краг-Якобсен / Seren Kragh-Jacobsen
Актеры: Софи Гробёль, Сёрен Маллинг, Синье Эгхольм Олсен, Лиа Бойсен, Бёрье Альстедт, Фредерик Кристиан Йохансен, Йенс Йорн Споттаг, Дональд Хёгберг, Джули Карлсен, Нис Банк-Миккельсен, Сусан Ольсен, Барбро Энберг, Хенрик Бирк, Расмус Элтон, Якоб Ульрик Ломанн, Мэдс Ромер
Описание фильма:
Сидя поздним зимним вечером у окна, мальчик и его дед слушали, как поет небо. Наступил час рыси — час, когда человек достигает самого счастливого момента в своей жизни. Мальчик и дедушка верили, что в дне бывает двадцать пятый час, именно он и является самым радостным в жизни. Но реальность острыми когтями врывается в красивую сказку, и жизнь окрашивается в черный цвет. Единственное желание у мальчика с тех пор только одно — чтобы наступил час рыси. Но наступит он нежданно…

Дата мировой премьеры: 23 мая 2013
Продолжительность: 01:29:02
Качество видео: BDRip 1080p [profile-LQ]
Видеокодек: MPEG-4 AVC/H.264
Видео: H264, 12.6 Мбит/с, 1920x808, 25 кадр/с
Аудио #1: Русский: AC3, 2.0, 192 Кбит/с, 44,1 kHz, 16 bit
Аудио #2: Английский: DTS, 5.1, 1536 Кбит/с, 48 kHz, 24 bit
Сохранены оригинальные чаптеры как на Blu-Ray

MediaInfo:

Общее
Уникальный идентификатор : 213074932537347550422816958699740285010 (0xA04CBD4294C231B2803D86BF03C74852)
Полное имя : D:\Video\I.Lossens.Time.2013.Blu.Ray.1080p.mkv
Формат : Matroska
Версия формата : Version 4 / Version 2
Размер файла : 8,87 Гбайт
Продолжительность : 1 ч. 29 м.
Общий поток : 14,3 Мбит/сек
Дата кодирования : UTC 2014-02-13 19:28:37
Программа кодирования : mkvmerge v6.7.0 ('Back to the Ground') 64bit built on Jan 8 2014 15:10:52
Библиотека кодирования : libebml v1.3.0 + libmatroska v1.4.1
Видео
Идентификатор : 1
Формат : AVC
Формат/Информация : Advanced Video Codec
Профиль формата : High@L4.1
Параметр CABAC формата : Да
Параметр ReFrames формата : 5 кадров
Идентификатор кодека : V_MPEG4/ISO/AVC
Продолжительность : 1 ч. 29 м.
Битрейт : 12,6 Мбит/сек
Ширина : 1920 пикселей
Высота : 808 пикселей
Соотношение сторон : 2,40:1
Режим частоты кадров : Постоянный
Частота кадров : 25,000 кадров/сек
Цветовое пространство : YUV
Субдискретизация насыщенности : 4:2:0
Битовая глубина : 8 бит
Тип развёртки : Прогрессивная
Бит/(Пиксели*Кадры) : 0.324
Библиотека кодирования : x264 core 138 r2358 9e941d1
Настройки программы : cabac=1 / ref=5 / deblock=1:0:0 / analyse=0x3:0x133 / me=umh / subme=7 / psy=1 / psy_rd=1.00:0.00 / mixed_ref=1 / me_range=16 / chroma_me=1 / trellis=1 / 8x8dct=1 / cqm=0 / deadzone=21,11 / fast_pskip=0 / chroma_qp_offset=-2 / threads=8 / lookahead_threads=1 / sliced_threads=0 / nr=0 / decimate=1 / interlaced=0 / bluray_compat=0 / constrained_intra=0 / bframes=3 / b_pyramid=2 / b_adapt=1 / b_bias=0 / direct=1 / weightb=1 / open_gop=0 / weightp=2 / keyint=250 / keyint_min=25 / scenecut=40 / intra_refresh=0 / rc_lookahead=40 / rc=2pass / mbtree=1 / bitrate=12555 / ratetol=1.0 / qcomp=0.60 / qpmin=0 / qpmax=69 / qpstep=4 / cplxblur=20.0 / qblur=0.5 / ip_ratio=1.40 / aq=1:1.00
Язык : Danish
Default : Да
Forced : Нет
Аудио #1
Идентификатор : 2
Формат : AC-3
Формат/Информация : Audio Coding 3
Расширение режима : CM (complete main)
Параметр Endianness формата : Big
Идентификатор кодека : A_AC3
Продолжительность : 1 ч. 29 м.
Вид битрейта : Постоянный
Битрейт : 192 Кбит/сек
Каналы : 2 канала
Расположение каналов : Front: L R
Частота : 44,1 КГц
Битовая глубина : 16 бит
Метод сжатия : С потерями
Размер потока : 122 Мбайт (1%)
Заголовок : datynet
Язык : Russian
Default : Да
Forced : Да
Аудио #2
Идентификатор : 3
Формат : DTS
Формат/Информация : Digital Theater Systems
Режим : 16
Параметр Endianness формата : Big
Идентификатор кодека : A_DTS
Продолжительность : 1 ч. 29 м.
Вид битрейта : Постоянный
Битрейт : 1509 Кбит/сек
Каналы : 6 каналов
Расположение каналов : Front: L C R, Side: L R, LFE
Частота : 48,0 КГц
Битовая глубина : 24 бит
Метод сжатия : С потерями
Размер потока : 961 Мбайт (11%)
Язык : Danish
Default : Нет
Forced : Нет
Текст #1
Идентификатор : 4
Формат : UTF-8
Идентификатор кодека : S_TEXT/UTF8
Идентификатор кодека/Информация : UTF-8 Plain Text
Заголовок : Mannenr
Язык : Russian
Default : Нет
Forced : Нет
Текст #2
Идентификатор : 5
Формат : UTF-8
Идентификатор кодека : S_TEXT/UTF8
Идентификатор кодека/Информация : UTF-8 Plain Text
Язык : English
Default : Нет
Forced : Нет
Меню
00:00:00.000 : en:00:00:00.000
00:08:09.400 : en:00:08:09.400
00:16:20.920 : en:00:16:20.920
00:21:39.560 : en:00:21:39.560
00:30:00.440 : en:00:30:00.440
00:37:09.760 : en:00:37:09.760
00:45:25.000 : en:00:45:25.000
00:52:39.200 : en:00:52:39.200
01:00:34.120 : en:01:00:34.120
01:06:00.720 : en:01:06:00.720
01:13:21.680 : en:01:13:21.680
01:25:00.000 : en:01:25:00.000

Рецензия:

25-ый час
Мощный атмосферный фильм. Отличные актеры, отличный режиссер. Скандинавы продолжают уже не удивлять, но восхищать. Мне сложно представить, кто бы мог сейчас также филигранно снять фильм с подобным сюжетом. Чтобы он при этом не превратился в сопли, но и не вызывал зевоты. Фильм из тех, что заставляет заглянуть туда, куда сам заглядывать не хочешь или не можешь.
Желающие могут погрузиться в психоанализ процессов, протекающих в голове психически не здорового человека. Другие могут порассуждать об актуальности поднятой режиссером проблемы на Западе и неуместности ее в России. Можно попробовать взвесить по новой и, при необходимости, переоценить морально-этические нормы в свете дальнейшего развития цивилизации. Да, конечно, есть и тема роли церкви в современном обществе, и места ее в жизни личности. Но все это действительно только при условии, что вы не попали в Час рыси при просмотре фильма. Глубокое интровертное кино, вызывающее желание молчать и вспоминать, а не анализировать и рассуждать.
И, да, я полагаю, что абсолютно не важно — откуда шарф.
10 из 10
Скриншоты:
[th]http://img.torrentsclub.org/di/VDNF/76a343c84dc0355...94d3c8c.png[/th] [th]http://img.torrentsclub.org/di/B6S5/168cf355da5337c...2b1af00.png[/th] [th]http://img.torrentsclub.org/di/L5R5/626de5cc2ebbd62...0df0d3f.png[/th]
Время раздачи: с 10:00 до 20:00 (GMT+2) - до 10 скачавшихНе забываем говорить

[Цитировать]



Показать сообщения:    

Текущее время: 10-Дек 19:40

Часовой пояс: UTC + 3


Вы не можете начинать темы
Вы не можете отвечать на сообщения
Вы не можете редактировать свои сообщения
Вы не можете удалять свои сообщения
Вы не можете голосовать в опросах
Вы не можете прикреплять файлы к сообщениям
Вы не можете скачивать файлы

!ВНИМАНИЕ!
Сайт не предоставляет электронные версии произведений, а занимается лишь коллекционированием и каталогизацией ссылок, присылаемых и публикуемых на форуме нашими читателями. Если вы являетесь правообладателем какого-либо представленного материала и не желаете, чтобы ссылка на него находилась в нашем каталоге, свяжитесь с нами, и мы незамедлительно удалим ее. Файлы для обмена на трекере предоставлены пользователями сайта, и администрация не несет ответственности за их содержание. Просьба не заливать файлы, защищенные авторскими правами, а также файлы нелегального содержания!