[ Сегодня идет свободное скачивание без начисления Download ]


Статистика раздачи
Нет
 
   
 
Top  
 
 
-Медсестра / Nurse 3-D (2013) WEB-DLRip
«Your pain is her pleasure»
- Год выпуска: 2013
Производство: США | Lions Gate Entertainment, Lionsgate
Жанр: Триллер
Перевод: Многоголосый закадровый, профессиональный (BaibaKo | ненормативная лексика)
Субтитры: Вшитые отключаемые
Язык субтитров: Английский-Дата мировой премьеры: 28 сентября 2013 (Швейцария, Кинофестиваль в Цюрихе)
Дата российской премьеры: 23 октября 2014, «Каскад»-Режиссер: Дуглас Арниокоски-Продюсер: Марк Бьенсток, Майкл Пасернек, Джон Сакки-Актеры: Пас де ла Уэрта, Катрина Боуден, Корбин Блю, Джадд Нельсон, Борис Коджо, Адам Хершман, Найси Нэш, Кэтлин Тёрнер, Майкл Эклунд, Мелани Скорфано-Описание фильма:
Днём Эбби Рассел является примерной медсестрой, которой люди доверяют свою жизнь. А ночью она использует собственную сексуальность, соблазняя и обманывая людей, чтобы затем убить их с особой жестокостью… Младшая медсестра начинает подозревать Эбби в преступлениях и пытается вывести негодяйку на чистую воду.-
Продолжительность: 01:23:54
Качество видео: WEB-DLRip
Видеокодек: MPEG-4 AVC/H.264
Битрейт видео: ~ 1964 Кбит/сек
Размер кадра: 1024 x 424 (2.415) at 23.976 fps : 0.189 Bits/Pixel
Аудио #1: AC3 192 Кбит/сек (2ch), 48,0 КГц, 16 бит [Русский, MVO BaibaKo]
Аудио #2: AC3 320 Кбит/сек (6ch), 48,0 КГц, 16 бит [Английский]
Дополнительно: Сохранены оригинальные чаптеры как на Blu-ray

MediaInfo:

Уникальный идентификатор                 : 235869800612284068554193521363751905599 (0xB172DF06CE0DA350A89781E24BC9A93F)
Полное имя                               : G:\Medsestra.2013.P.WEB-DLRip.x264.1.45Gb.mkv
Формат                                   : Matroska
Версия формата                           : Version 2
Размер файла                             : 1,45 Гбайт
Продолжительность                        : 1 ч. 23 м.
Общий поток                              : 2476 Кбит/сек
Название фильма                          : Medsestra.2013.P.WEB-DLRip.x264.1.45Gb.NNM-CLUB.GIU
Дата кодирования                         : UTC 2014-02-18 07:01:38
Программа кодирования                    : mkvmerge v2.9.9 ('Tutu') built on Nov 25 2009 21:13:32
Библиотека кодирования                   : libebml v0.7.9 + libmatroska v0.8.1
Видео
Идентификатор                            : 1
Формат                                   : AVC
Формат/Информация                        : Advanced Video Codec
Профиль формата                          : [url=mailto:[email protected]][email protected][/url]
Параметр CABAC формата                   : Да
Параметр ReFrames формата                : 12 кадров
Идентификатор кодека                     : V_MPEG4/ISO/AVC
Продолжительность                        : 1 ч. 23 м.
Битрейт                                  : 1964 Кбит/сек
Ширина                                   : 1024 пикселя
Высота                                   : 424 пикселя
Соотношение сторон                       : 2,40:1
Режим частоты кадров                     : Постоянный
Частота кадров                           : 23,976 кадра/сек
Цветовое пространство                    : YUV
Субдискретизация насыщенности            : 4:2:0
Битовая глубина                          : 8 бит
Тип развёртки                            : Прогрессивная
Бит/(Пиксели*Кадры)                      : 0.189
Размер потока                            : 1,12 Гбайт (77%)
Заголовок                                : -=Release for NNM-CLUB.RU=-
Библиотека кодирования                   : x264 core 133 r2334 a3ac64b
Настройки программы                      : cabac=1 / ref=12 / deblock=1:-3:-3 / analyse=0x3:0x113 / me=umh / subme=11 / psy=1 / psy_rd=1.00:0.25 / mixed_ref=0 / me_range=32 / chroma_me=1 / trellis=2 / 8x8dct=1 / cqm=0 / deadzone=21,11 / fast_pskip=1 / chroma_qp_offset=-4 / threads=12 / lookahead_threads=2 / sliced_threads=0 / nr=0 / decimate=0 / interlaced=0 / bluray_compat=0 / constrained_intra=0 / bframes=8 / b_pyramid=2 / b_adapt=2 / b_bias=0 / direct=3 / weightb=1 / open_gop=0 / weightp=2 / keyint=240 / keyint_min=23 / scenecut=40 / intra_refresh=0 / rc_lookahead=40 / rc=2pass / mbtree=1 / bitrate=1964 / ratetol=1.0 / qcomp=0.70 / qpmin=0 / qpmax=69 / qpstep=4 / cplxblur=20.0 / qblur=0.5 / vbv_maxrate=62500 / vbv_bufsize=78125 / nal_hrd=none / ip_ratio=1.40 / aq=1:1.00
Язык                                     : English
Default                                  : Нет
Forced                                   : Нет
Аудио #1
Идентификатор                            : 2
Формат                                   : AC-3
Формат/Информация                        : Audio Coding 3
Расширение режима                        : CM (complete main)
Параметр Endianness формата              : Big
Идентификатор кодека                     : A_AC3
Продолжительность                        : 1 ч. 23 м.
Вид битрейта                             : Постоянный
Битрейт                                  : 192 Кбит/сек
Каналы                                   : 2 канала
Расположение каналов                     : Front: L R
Частота                                  : 48,0 КГц
Битовая глубина                          : 16 бит
Метод сжатия                             : С потерями
Размер потока                            : 115 Мбайт (8%)
Заголовок                                : AC3.192.Kbps (2ch) Russian (MVO BaibaKo)
Язык                                     : Russian
Default                                  : Да
Forced                                   : Нет
Аудио #2
Идентификатор                            : 3
Формат                                   : AC-3
Формат/Информация                        : Audio Coding 3
Расширение режима                        : CM (complete main)
Параметр Endianness формата              : Big
Идентификатор кодека                     : A_AC3
Продолжительность                        : 1 ч. 23 м.
Вид битрейта                             : Постоянный
Битрейт                                  : 320 Кбит/сек
Каналы                                   : 6 каналов
Расположение каналов                     : Front: L C R, Side: L R, LFE
Частота                                  : 48,0 КГц
Битовая глубина                          : 16 бит
Метод сжатия                             : С потерями
Размер потока                            : 192 Мбайт (13%)
Заголовок                                : AC3.320Kbps (6ch) English
Язык                                     : English
Default                                  : Нет
Forced                                   : Нет
Текст
Идентификатор                            : 4
Формат                                   : UTF-8
Идентификатор кодека                     : S_TEXT/UTF8
Идентификатор кодека/Информация          : UTF-8 Plain Text
Заголовок                                : English (Full)
Язык                                     : English
Default                                  : Нет
Forced                                   : Нет
Меню
00:00:00.000                             : en:Chapter 1
00:07:11.000                             : en:Chapter 2
00:15:28.000                             : en:Chapter 3
00:24:21.000                             : en:Chapter 4
00:34:45.000                             : en:Chapter 5
00:44:05.000                             : en:Chapter 6
00:52:10.000                             : en:Chapter 7
01:01:08.000                             : en:Chapter 8
01:10:50.000                             : en:Chapter 9
01:19:23.000                             : en:Chapter 10

x264 iNFO

x264 [info]: profile High, level 4.1
x264 [info]: frame I:1153 Avg QP:15.66 size: 64665
x264 [info]: frame P:34490 Avg QP:18.82 size: 19028
x264 [info]: frame B:85075 Avg QP:20.19 size: 5925
x264 [info]: consecutive B-frames: 3.7% 7.2% 10.1% 67.9% 4.8% 4.1% 0.4% 1.3% 0.5%
Скриншоты:

[th]http://img.torrentsclub.org/di/WFT3/7d4cb710cbfe.png[/th] [th]http://img.torrentsclub.org/di/ZEWV/bfdc85416632.png[/th] [th]http://img.torrentsclub.org/di/FTF8/c4cd98676edd.png[/th]

[Цитировать]



Показать сообщения:    

Текущее время: 06-Дек 08:52

Часовой пояс: UTC + 3


Вы не можете начинать темы
Вы не можете отвечать на сообщения
Вы не можете редактировать свои сообщения
Вы не можете удалять свои сообщения
Вы не можете голосовать в опросах
Вы не можете прикреплять файлы к сообщениям
Вы не можете скачивать файлы

!ВНИМАНИЕ!
Сайт не предоставляет электронные версии произведений, а занимается лишь коллекционированием и каталогизацией ссылок, присылаемых и публикуемых на форуме нашими читателями. Если вы являетесь правообладателем какого-либо представленного материала и не желаете, чтобы ссылка на него находилась в нашем каталоге, свяжитесь с нами, и мы незамедлительно удалим ее. Файлы для обмена на трекере предоставлены пользователями сайта, и администрация не несет ответственности за их содержание. Просьба не заливать файлы, защищенные авторскими правами, а также файлы нелегального содержания!