[ Сегодня идет свободное скачивание без начисления Download ]


Статистика раздачи
Нет
 
   
 
Top  
 
 
-Шальные деньги: Роскошная жизнь / Snabba cash - Livet deluxe (2013) BDRip
«Based On Novel»
- Год выпуска: 2013
Производство: Швеция | Film i Vest, Tre Venner Produktion AB
Жанр: Триллер, Драма, Криминал
Перевод: Одноголосый закадровый, любительский
Озвучка / Автор перевода: [den904]
Субтитры: Вшитые отключаемые
Язык субтитров: Английский-Дата мировой премьеры: 30 августа 2013 (Швеция)-Режиссер: Дженс Йонсон-Продюсер: Фредерик Викстрем, Джессика Аск-Актеры: Матиас Падин, Юэль Киннаман, Мартин Волстром, Деян Чукич, Седомир Джорджевич, Александр Петрович, Пабло Леива Венгер-Описание фильма:
Каждый хочет жить хорошо, а для роскошной жизни необходимы деньги. Поэтому таксист из Стокгольма решает заняться нелегальным бизнесом, а именно связаться с наркотиками и торговать кокаином. Но грязные деньги ведут к куче неприятностей. В нашей истории негативных героев хватает. Тут замешена и югославская мафия, сбежавший с тюрьмы латиноамериканец. А всё крутится вокруг огромной суммы - 100 миллионов, для всех лакомый кусочек.-
Продолжительность: 02:07:05
Качество видео: BDRip 720p [iMSORNY]
Видеокодек: MPEG-4 AVC/H.264
Битрейт видео: ~ 5874 Кбит/сек
Размер кадра: 1280 x 528 (2.424) at 24.000 fps : 0.362 Bits/Pixel
Аудио #1: AC3 448 Кбит/сек (6ch), 48,0 КГц, 16 бит [Русский, VO den904]
Аудио #2: DTS 1509 Кбит/сек (6ch), 48,0 КГц, 24 бит [Шведский]
Релиз: CINЕMANIA

MediaInfo:

Уникальный идентификатор                 : 196283705107003582650764494388971546608 (0x93AADDD4A74D11EDBAE79A3DE615A7F0)
Полное имя                               : H:\Shalnyye.dengi.Roskoshnaya.zhizn.2013.L1.BDRip.720p.mkv
Формат                                   : Matroska
Версия формата                           : Version 4 / Version 2
Размер файла                             : 6,95 Гбайт
Продолжительность                        : 2 ч. 7 м.
Общий поток                              : 7831 Кбит/сек
Название фильма                          : Release Group [SPAM]
Дата кодирования                         : UTC 2014-02-16 22:54:26
Программа кодирования                    : mkvmerge v6.7.0 ('Back to the Ground') 64bit built on Jan  8 2014 15:10:52
Библиотека кодирования                   : libebml v1.3.0 + libmatroska v1.4.1
Видео
Идентификатор                            : 1
Формат                                   : AVC
Формат/Информация                        : Advanced Video Codec
Профиль формата                          : [url=mailto:[email protected]][email protected][/url]
Параметр CABAC формата                   : Да
Параметр ReFrames формата                : 5 кадров
Идентификатор кодека                     : V_MPEG4/ISO/AVC
Продолжительность                        : 2 ч. 7 м.
Битрейт                                  : 5874 Кбит/сек
Ширина                                   : 1280 пикселей
Высота                                   : 528 пикселей
Соотношение сторон                       : 2,40:1
Режим частоты кадров                     : Постоянный
Частота кадров                           : 24,000 кадра/сек
Цветовое пространство                    : YUV
Субдискретизация насыщенности            : 4:2:0
Битовая глубина                          : 8 бит
Тип развёртки                            : Прогрессивная
Бит/(Пиксели*Кадры)                      : 0.362
Размер потока                            : 5,08 Гбайт (73%)
Заголовок                                : Release Group [SPAM]
Библиотека кодирования                   : x264 core 140 r2377 1ca7bb9
Настройки программы                      : cabac=1 / ref=5 / deblock=1:0:0 / analyse=0x3:0x133 / me=umh / subme=7 / psy=1 / psy_rd=1.00:0.00 / mixed_ref=1 / me_range=16 / chroma_me=1 / trellis=1 / 8x8dct=1 / cqm=0 / deadzone=21,11 / fast_pskip=0 / chroma_qp_offset=-2 / threads=18 / lookahead_threads=3 / sliced_threads=0 / nr=0 / decimate=1 / interlaced=0 / bluray_compat=0 / constrained_intra=0 / bframes=3 / b_pyramid=2 / b_adapt=2 / b_bias=0 / direct=3 / weightb=1 / open_gop=0 / weightp=2 / keyint=250 / keyint_min=24 / scenecut=40 / intra_refresh=0 / rc_lookahead=50 / rc=2pass / mbtree=1 / bitrate=5874 / ratetol=1.0 / qcomp=0.60 / qpmin=0 / qpmax=69 / qpstep=4 / cplxblur=20.0 / qblur=0.5 / ip_ratio=1.40 / aq=1:1.00
Язык                                     : Swedish
Default                                  : Да
Forced                                   : Нет
Аудио #1
Идентификатор                            : 2
Формат                                   : AC-3
Формат/Информация                        : Audio Coding 3
Расширение режима                        : CM (complete main)
Параметр Endianness формата              : Big
Идентификатор кодека                     : A_AC3
Продолжительность                        : 2 ч. 7 м.
Вид битрейта                             : Постоянный
Битрейт                                  : 448 Кбит/сек
Каналы                                   : 6 каналов
Расположение каналов                     : Front: L C R, Side: L R, LFE
Частота                                  : 48,0 КГц
Битовая глубина                          : 16 бит
Метод сжатия                             : С потерями
Размер потока                            : 407 Мбайт (6%)
Заголовок                                : den904
Язык                                     : Russian
Default                                  : Да
Forced                                   : Да
Аудио #2
Идентификатор                            : 3
Формат                                   : DTS
Формат/Информация                        : Digital Theater Systems
Режим                                    : 16
Параметр Endianness формата              : Big
Идентификатор кодека                     : A_DTS
Продолжительность                        : 2 ч. 7 м.
Вид битрейта                             : Постоянный
Битрейт                                  : 1509 Кбит/сек
Каналы                                   : 6 каналов
Расположение каналов                     : Front: L C R, Side: L R, LFE
Частота                                  : 48,0 КГц
Битовая глубина                          : 24 бит
Метод сжатия                             : С потерями
Размер потока                            : 1,34 Гбайт (19%)
Язык                                     : Swedish
Default                                  : Нет
Forced                                   : Нет
Текст
Идентификатор                            : 4
Формат                                   : UTF-8
Идентификатор кодека                     : S_TEXT/UTF8
Идентификатор кодека/Информация          : UTF-8 Plain Text
Язык                                     : English
Default                                  : Нет
Forced                                   : Нет
Скриншоты:

[th]http://img.torrentsclub.org/di/H7AK/90f9e8a09feb77d...7b64ea9.png[/th] [th]http://img.torrentsclub.org/di/B0TV/cddd6a1436ba192...5f8e149.png[/th] [th]http://img.torrentsclub.org/di/MXKJ/ceb76d797784745...2ad86d8.png[/th]


Время раздачи: 24/7 (до 10 скачавших)

[Цитировать]



Показать сообщения:    

Текущее время: 06-Дек 21:01

Часовой пояс: UTC + 3


Вы не можете начинать темы
Вы не можете отвечать на сообщения
Вы не можете редактировать свои сообщения
Вы не можете удалять свои сообщения
Вы не можете голосовать в опросах
Вы не можете прикреплять файлы к сообщениям
Вы не можете скачивать файлы

!ВНИМАНИЕ!
Сайт не предоставляет электронные версии произведений, а занимается лишь коллекционированием и каталогизацией ссылок, присылаемых и публикуемых на форуме нашими читателями. Если вы являетесь правообладателем какого-либо представленного материала и не желаете, чтобы ссылка на него находилась в нашем каталоге, свяжитесь с нами, и мы незамедлительно удалим ее. Файлы для обмена на трекере предоставлены пользователями сайта, и администрация не несет ответственности за их содержание. Просьба не заливать файлы, защищенные авторскими правами, а также файлы нелегального содержания!