[ Сегодня идет свободное скачивание без начисления Download ]


Статистика раздачи
Нет
 
   
 
Top  
 
 
- Расставаясь с девушками / Breaking the Girls / Wild Beasts (2013) BDRip [720p] [EN]- Год выпуска: 2013
Жанр: Триллер, Криминал
Описание фильма:
Случайная встреча в баре, и вот уже у Сары (Агнес Брукнер), студентки колледжа и героини психологического триллера «Расставаясь с девушками» (Breaking the Girls), завязываются дружеские отношения с сексуальной красоткой Алекс (Мадлен Зима). Совсем скоро эта загадочная девушка становится более, чем просто ее подругой.
У каждой из героинь фильма «Расставаясь с девушками» в жизни есть кто-то, кого они считают своими врагами. И однажды Алекс полушутя предлагает избавиться от этих людей, убив врагов друг друга. Сара не принимает всерьез ее слова, но они неожиданно начинают воплощаться в жизнь…
Смерть за смерть – и вот уже девушки одна за другой приступают к выполнению соглашения. Но когда события начнут развиваться с непредсказуемыми последствиями, закручиваясь в историю обольщения, обмана и предательства, как далеко способны зайти героини картины «Расставаясь с девушками»?
Режиссер: Джеми Бэббит
Актеры: Сэм Андерсон, Мадлен Зима, Шон Эшмор, Агнес Бракнер, Шэнна Коллинз, Маниш Дайал, Кейт Леверинг, Дженнифер Энн Мэсси, Билли Майо, Мелани Мейрон, Тия Сиркар
Продолжительность: 01:26:41
Качество видео: BDRip
Перевод: Отсутствует
Язык: Английский

Видеокодек: MPEG-4 AVC/H.264
Битрейт видео: ~5 703 Kbps
Размер кадра: 1280x720
Аудиокодек: DTS : 6 channels
Битрейт аудио: 1 510 Kbps
Сэмпл: Ссылка

MediaInfo

Breaking the Girls.720p.NNM-CLUB.mkv
Format : Matroska
Format version : Version 4 / Version 2
File size : 4.37 GiB
Duration : 1h 26mn
Overall bit rate : 7 214 Kbps
Encoded date : UTC 2014-02-17 18:49:11
Writing application : mkvmerge v6.6.0 ('The Edge Of The In Between') built on Dec 1 2013 17:55:00
Writing library : libebml v1.3.0 + libmatroska v1.4.1
Video
ID : 1
Format : AVC
Format/Info : Advanced Video Codec
Format profile : High@L4.1
Format settings, CABAC : Yes
Format settings, ReFrames : 5 frames
Codec ID : V_MPEG4/ISO/AVC
Duration : 1h 26mn
Bit rate : 5 703 Kbps
Width : 1 280 pixels
Height : 720 pixels
Display aspect ratio : 16:9
Frame rate : 23.976 fps
Color space : YUV
Chroma subsampling : 4:2:0
Bit depth : 8 bits
Scan type : Progressive
Bits/(Pixel*Frame) : 0.258
Stream size : 3.37 GiB (77%)
Writing library : x264 core 140 r2377 1ca7bb9
Encoding settings : cabac=1 / ref=5 / deblock=1:0:0 / analyse=0x3:0x133 / me=umh / subme=7 / psy=1 / psy_rd=1.00:0.00 / mixed_ref=1 / me_range=16 / chroma_me=1 / trellis=1 / 8x8dct=1 / cqm=0 / deadzone=21,11 / fast_pskip=0 / chroma_qp_offset=-2 / threads=12 / lookahead_threads=2 / sliced_threads=0 / nr=0 / decimate=1 / interlaced=0 / bluray_compat=0 / constrained_intra=0 / bframes=3 / b_pyramid=2 / b_adapt=1 / b_bias=0 / direct=1 / weightb=1 / open_gop=0 / weightp=1 / keyint=250 / keyint_min=23 / scenecut=40 / intra_refresh=0 / rc_lookahead=40 / rc=2pass / mbtree=1 / bitrate=5703 / ratetol=1.0 / qcomp=0.60 / qpmin=0 / qpmax=69 / qpstep=4 / cplxblur=20.0 / qblur=0.5 / ip_ratio=1.40 / aq=1:1.00
Default : Yes
Forced : No
Audio
ID : 2
Format : DTS
Format/Info : Digital Theater Systems
Codec ID : A_DTS
Duration : 1h 26mn
Bit rate mode : Constant
Bit rate : 1 510 Kbps
Channel(s) : 6 channels
Channel positions : Front: L C R, Side: L R, LFE
Sampling rate : 48.0 KHz
Bit depth : 16 bits
Compression mode : Lossy
Stream size : 936 MiB (21%)
Language : English
Default : Yes
Forced : No
Menu
00:00:00.000 : en:00:00:00.000
00:06:31.391 : en:00:06:31.391
00:15:58.124 : en:00:15:58.124
00:20:35.192 : en:00:20:35.192
00:27:51.044 : en:00:27:51.044
00:34:51.881 : en:00:34:51.881
00:43:05.625 : en:00:43:05.625
00:48:36.539 : en:00:48:36.539
00:56:29.761 : en:00:56:29.761
01:02:53.061 : en:01:02:53.061
01:09:22.283 : en:01:09:22.283
01:17:54.670 : en:01:17:54.670

Скриншоты



[Цитировать]



Показать сообщения:    

Текущее время: 11-Дек 05:18

Часовой пояс: UTC + 3


Вы не можете начинать темы
Вы не можете отвечать на сообщения
Вы не можете редактировать свои сообщения
Вы не можете удалять свои сообщения
Вы не можете голосовать в опросах
Вы не можете прикреплять файлы к сообщениям
Вы не можете скачивать файлы

!ВНИМАНИЕ!
Сайт не предоставляет электронные версии произведений, а занимается лишь коллекционированием и каталогизацией ссылок, присылаемых и публикуемых на форуме нашими читателями. Если вы являетесь правообладателем какого-либо представленного материала и не желаете, чтобы ссылка на него находилась в нашем каталоге, свяжитесь с нами, и мы незамедлительно удалим ее. Файлы для обмена на трекере предоставлены пользователями сайта, и администрация не несет ответственности за их содержание. Просьба не заливать файлы, защищенные авторскими правами, а также файлы нелегального содержания!