[ Сегодня идет свободное скачивание без начисления Download ]


Статистика раздачи
Нет
 
   
 
Top  
 
 
-Ночь с Алисой / Рядом с Алисой / Сегодня вечером дома у Алисы / Stasera a casa di Alice (1990) DVDRip [VO]- Год выпуска: 1990
Производство: Италия | Cecchi Gori Group Tiger Cinematografica, Penta Film
Жанр: Комедия
Перевод: Одноголосый закадровый (Urasiko)
Субтитры: Отсутствуют
Дата мировой премьеры: 20 декабря 1990, Италия
Дата выхода DVD релиза: 2 марта 2007, Cecchi Gori
Режиссер: Карло Вердоне
Сценарий: Карло Вердоне, Леонардо Бенвенути, Пьеро Де Бернарди, Филиппо Асчьоне
Продюсер: Марио Чекки Гори, Витторио Чекки Гори
Актеры: Карло Вердоне, Орнелла Мути, Ивонн Шио, Чинция Леоне, Беатрис Пальме, Кьяра Аймонино, Франческа д’Алоя, Марианджела Джордано, Серджио Кастеллитто, Джон Карлсен, Паоло Паолони, Алессандра Ваззолер
Описание фильма:
Шурины Филиппо и Саверио являются работниками туристического агентства, которым управляют их собственные жены. Тем временем, Саверио случайно становится известно, что Филиппо расходует средства компании на оплату съемной квартиры, в которой проживает его любовница по имени Алиса. Она работает в студии по озвучиванию порнофильмов. Чтобы избежать назревающего скандала, Саверио решается переговорить с Алисой и убедить ее в необходимости разрыва отношений с Филиппо. Но вместо этого, он сам оказывается заложником чувств и по уши влюбляется в нее. Между шуринами начинается борьба...

Продолжительность: 01:57:11
Качество видео: DVDRip
Видеокодек: Xvid
Битрейт видео: 1472 кбит/c
Размер кадра: 720x432
Аудиокодек: MP3 2.0
Битрейт аудио: 128 кбит/c

MediaInfo:

General
Complete name : D:\Stasera_a_casa_di_Alice_1990.DVDRip.XviD.avi
Format : AVI
Format/Info : Audio Video Interleave
File size : 1.32 GiB
Duration : 1h 57mn
Overall bit rate : 1 610 Kbps
Writing application : VirtualDubModRus 1.5.10.2 (build 2542/release)
Writing library : VirtualDubMod build 2542/release
Video
ID : 0
Format : MPEG-4 Visual
Format profile : Advanced [email protected]
Format settings, BVOP : 1
Format settings, QPel : No
Format settings, GMC : No warppoints
Format settings, Matrix : Custom
Codec ID : XVID
Codec ID/Hint : XviD
Duration : 1h 57mn
Bit rate : 1 472 Kbps
Width : 720 pixels
Height : 432 pixels
Display aspect ratio : 1.667
Frame rate : 25.000 fps
Color space : YUV
Chroma subsampling : 4:2:0
Bit depth : 8 bits
Scan type : Progressive
Compression mode : Lossy
Bits/(Pixel*Frame) : 0.189
Stream size : 1.20 GiB (91%)
Writing library : XviD 1.2.1 (UTC 2008-12-04)
Audio
ID : 1
Format : MPEG Audio
Format version : Version 1
Format profile : Layer 3
Mode : Joint stereo
Mode extension : MS Stereo
Codec ID : 55
Codec ID/Hint : MP3
Duration : 1h 57mn
Bit rate mode : Constant
Bit rate : 128 Kbps
Channel(s) : 2 channels
Sampling rate : 48.0 KHz
Compression mode : Lossy
Stream size : 107 MiB (8%)
Alignment : Split accross interleaves
Interleave, duration : 40 ms (1.00 video frame)
Interleave, preload duration : 500 ms

Скриншоты



[Цитировать]



Показать сообщения:    

Текущее время: 04-Дек 15:18

Часовой пояс: UTC + 3


Вы не можете начинать темы
Вы не можете отвечать на сообщения
Вы не можете редактировать свои сообщения
Вы не можете удалять свои сообщения
Вы не можете голосовать в опросах
Вы не можете прикреплять файлы к сообщениям
Вы не можете скачивать файлы

!ВНИМАНИЕ!
Сайт не предоставляет электронные версии произведений, а занимается лишь коллекционированием и каталогизацией ссылок, присылаемых и публикуемых на форуме нашими читателями. Если вы являетесь правообладателем какого-либо представленного материала и не желаете, чтобы ссылка на него находилась в нашем каталоге, свяжитесь с нами, и мы незамедлительно удалим ее. Файлы для обмена на трекере предоставлены пользователями сайта, и администрация не несет ответственности за их содержание. Просьба не заливать файлы, защищенные авторскими правами, а также файлы нелегального содержания!