[ Сегодня идет свободное скачивание без начисления Download ]


Статистика раздачи
Нет
 
   
 
Top  
 
 
-Северная стена / Nordwand (2008) BDRip [720p]- Год выпуска: 2008
Жанр: Драма, приключения, история, спорт
Описание фильма:
1936 год. Северная стена Айгера — последняя «нерешенная проблема» Альп, за решение которой сам Гитлер лично обещает вручить золотые медали Берлинской олимпиады… Есть три знаменитые классические стены северной ориентации — Гранд Жорас, Матерхорн, Айгер. Первым — в 1931 — пал Матерхорн. В 1935 была пройдена стена Гранд Жораса. Но именно Северную стену Айгера прозвали «Стеной смерти».
Именно на неё власти кантона в 1938-м запретили совершать восхождения, а спасатели вопреки всем канонам и уставам заявили в запале, что больше никого не будут вытаскивать с этой стены. Что ж, всему есть предел. И в конце 30-х казалось, что стену не взять никогда. Основанием для подобных размышлений служила хроника предыдущего десятилетия. С 1928 по 1936 на стену — как под поезд — бросаются группы смельчаков. Безуспешно. Июль 1936-го. Два баварца — Андреас Хинтерштойсер и Тони Курц, и два австрийца — Вилли Ангерер и Эдди Райнер объединяют усилия в штурме стены…
Режиссер: Филипп Штольц
Актеры: Бенно Фюрманн, Иоханна Вокалек, Флориан Лукас, Георг Фридрих, Саймон Шварц, Ульрих Тукур, Эрвин Штайнхауэр, Бранко Самаровски, Петра Морзе, Ганспетер Мюллер
Продолжительность: 02:06:05
Качество видео: BDRip [720p]
Перевод: Дублированный
Язык субтитров: Русские, немецкие, английские
Вид субтитров: Вшитые отключаемые

Дата мировой премьеры: 9 августа 2008
Видео кодек: MPEG-4 AVC/H.264
Аудио кодек: AC3
Видео: 1280x720 (16:9), 24.000 fps, 8577 kbps avg, 0.388 bit/pixel
Аудио: №1 48 kHz, AC3 2.0 ch, 192 kbps avg | DUB
Аудио: №2 48 kHz, AC3 5.1 ch, 640 kbps avg | GER
Сэмпл: Ссылка

MediaInfo

General
Unique ID                      : 241999931216034156493485481978634064507 (0xB60F7DCCD70DB27290BE2BC6786A527B)
Complete name                  : D:фильмыSevernaja.stena.BDrip.720p.mkv
Format                         : Matroska
Format version                 : Version 2
File size                      : 8.28 GiB
Duration                       : 2h 6mn
Overall bit rate               : 9 404 Kbps
Encoded date                   : UTC 2013-11-26 20:01:08
Writing application            : mkvmerge v5.5.0 ('Healer') built on Apr  6 2012 21:43:24
Writing library                : libebml v1.2.3 + libmatroska v1.3.0
Video
ID                             : 1
Format                         : AVC
Format/Info                    : Advanced Video Codec
Format profile                 : [url=mailto:High@L4.1]High@L4.1[/url]
Format settings, CABAC         : Yes
Format settings, ReFrames      : 9 frames
Muxing mode                    : Header stripping
Codec ID                       : V_MPEG4/ISO/AVC
Duration                       : 2h 6mn
Bit rate                       : 8 577 Kbps
Width                          : 1 280 pixels
Height                         : 720 pixels
Display aspect ratio           : 16:9
Frame rate mode                : Constant
Frame rate                     : 24.000 fps
Color space                    : YUV
Chroma subsampling             : 4:2:0
Bit depth                      : 8 bits
Scan type                      : Progressive
Bits/(Pixel*Frame)             : 0.388
Stream size                    : 7.39 GiB (89%)
Writing library                : x264 core 125 r2208 d9d2288
Encoding settings              : cabac=1 / ref=9 / deblock=1:-3:-3 / analyse=0x3:0x113 / me=umh / subme=10 / psy=1 / psy_rd=1.00:0.15 / mixed_ref=1 / me_range=32 / chroma_me=1 / trellis=2 / 8x8dct=1 / cqm=0 / deadzone=21,11 / fast_pskip=0 / chroma_qp_offset=1 / threads=6 / lookahead_threads=1 / sliced_threads=0 / nr=0 / decimate=1 / interlaced=0 / bluray_compat=0 / constrained_intra=0 / bframes=10 / b_pyramid=2 / b_adapt=2 / b_bias=0 / direct=3 / weightb=1 / open_gop=0 / weightp=2 / keyint=240 / keyint_min=24 / scenecut=40 / intra_refresh=0 / rc=2pass / mbtree=0 / bitrate=8577 / ratetol=1.0 / qcomp=0.75 / qpmin=0 / qpmax=40 / qpstep=4 / cplxblur=20.0 / qblur=0.5 / ip_ratio=1.20 / pb_ratio=1.20 / aq=1:0.65
Language                       : English
Default                        : Yes
Forced                         : No
Color primaries                : BT.709
Transfer characteristics       : BT.709
Matrix coefficients            : BT.709
Audio #1
ID                             : 2
Format                         : AC-3
Format/Info                    : Audio Coding 3
Mode extension                 : CM (complete main)
Format settings, Endianness    : Big
Muxing mode                    : Header stripping
Codec ID                       : A_AC3
Duration                       : 2h 6mn
Bit rate mode                  : Constant
Bit rate                       : 192 Kbps
Channel(s)                     : 2 channels
Channel positions              : Front: L R
Sampling rate                  : 48.0 KHz
Bit depth                      : 16 bits
Compression mode               : Lossy
Stream size                    : 173 MiB (2%)
Title                          : SaTI
Language                       : Russian
Default                        : Yes
Forced                         : No
Audio #2
ID                             : 3
Format                         : AC-3
Format/Info                    : Audio Coding 3
Mode extension                 : CM (complete main)
Format settings, Endianness    : Big
Muxing mode                    : Header stripping
Codec ID                       : A_AC3
Duration                       : 2h 6mn
Bit rate mode                  : Constant
Bit rate                       : 640 Kbps
Channel(s)                     : 6 channels
Channel positions              : Front: L C R, Side: L R, LFE
Sampling rate                  : 48.0 KHz
Bit depth                      : 16 bits
Compression mode               : Lossy
Stream size                    : 577 MiB (7%)
Language                       : German
Default                        : No
Forced                         : No
Text #1
ID                             : 4
Format                         : UTF-8
Codec ID                       : S_TEXT/UTF8
Codec ID/Info                  : UTF-8 Plain Text
Title                          : AlexSer
Language                       : Russian
Default                        : No
Forced                         : No
Text #2
ID                             : 5
Format                         : UTF-8
Codec ID                       : S_TEXT/UTF8
Codec ID/Info                  : UTF-8 Plain Text
Language                       : English
Default                        : No
Forced                         : No
Text #3
ID                             : 6
Format                         : UTF-8
Codec ID                       : S_TEXT/UTF8
Codec ID/Info                  : UTF-8 Plain Text
Language                       : German
Default                        : No
Forced                         : No
Menu
00:00:00.000                   : en:Chapter 01
00:08:34.083                   : en:Chapter 02
00:18:56.458                   : en:Chapter 03
00:27:51.958                   : en:Chapter 04
00:38:42.166                   : en:Chapter 05
00:47:57.416                   : en:Chapter 06
00:57:41.416                   : en:Chapter 07
01:13:15.875                   : en:Chapter 08
01:24:42.500                   : en:Chapter 09
01:43:52.958                   : en:Chapter 10
01:56:26.583                   : en:Chapter 11
01:59:52.333                   : en:Chapter 12
Скриншоты:
[th]http://img.torrentsclub.org/di/A3P6/3a681007c52a1f2...ff1b780.png[/th] [th]http://img.torrentsclub.org/di/2TBF/f90e27a5aa6cae8...945aef8.png[/th] [th]http://img.torrentsclub.org/di/J58J/f551ac2f8d180b3...19c9d57.png[/th]

[Цитировать]



Показать сообщения:    

Текущее время: 09-Дек 12:44

Часовой пояс: UTC + 3


Вы не можете начинать темы
Вы не можете отвечать на сообщения
Вы не можете редактировать свои сообщения
Вы не можете удалять свои сообщения
Вы не можете голосовать в опросах
Вы не можете прикреплять файлы к сообщениям
Вы не можете скачивать файлы

!ВНИМАНИЕ!
Сайт не предоставляет электронные версии произведений, а занимается лишь коллекционированием и каталогизацией ссылок, присылаемых и публикуемых на форуме нашими читателями. Если вы являетесь правообладателем какого-либо представленного материала и не желаете, чтобы ссылка на него находилась в нашем каталоге, свяжитесь с нами, и мы незамедлительно удалим ее. Файлы для обмена на трекере предоставлены пользователями сайта, и администрация не несет ответственности за их содержание. Просьба не заливать файлы, защищенные авторскими правами, а также файлы нелегального содержания!